Welcome Guest ( Log In | Register )

> Menace - Heavy Lethal (2012), Heavy/Speed Metal
post Nov 3 2012, 11:51:17
Post #1

Serial Uploader
Group Icon
Group: V.I.P
Posts: 39,534
Releases: 37658
From: Lithuania
On Forums: 14 years 7 months
Thanks: 473664 time(s)
Lithuania


(IMG:http://metalarea.org/images/audiocovers/2012_Nov/acov_tid186222_thumb.jpg)

*Artist: Menace
*Album: Heavy Lethal
*Year: 2012
*Genre: Heavy/Speed Metal
*Country: Italy (IMG:http://metalarea.org/forum/style_images/flags/Italy.png)
*Format: mp3@CBR320kbps
*Size: 96MB

Tracklist:
01. Heavy Lethal 02:37
02. She-Spider 04:19
03. Godzilla Raids Again 05:23
04. (665) Hell Neighbour 03:11
05. Crabro Attack 03:24
06. Duke Of Death 04:32
07. Straight To The Grave 03:25
08. Double Trouble 04:08
09. Steel Rain 04:25
******************************
Total playing time: 35:24

(IMG:http://metalarea.org/images/myspace.png)

Extended info


(IMG:http://metalarea.org/images/spectrogram/2012_Nov/c7880883902faef31f765040c28f2a6b.png)
Input File: 02. She-Spider.mp3
Channels : 2
Sample Rate : 44100
Precision : 16-bit
Duration : 00:04:19.89 = 11461281 samples = 19492 CDDA sectors
File Size : 11.8M
Bit Rate : 365k
Sample Encoding: MPEG audio (layer I, II or III)
Comments :
Title=She-Spider
Artist=Menace
Album=Heavy Lethal
Tracknumber=2
Year=2012
Genre=Heavy Metal



Register


Go to the top of the page
  Insert nick Quick quote
+Quote Post
 
Start new topic
Replies (1 - 3)
post Nov 3 2012, 12:55:49
Post #2

Восемь Литров
********
Group: Металариец
Posts: 808
Releases: 94
On Forums: 11 years 2 months
Thanks: 2661 time(s)
Canada


12 Mirrors / 320 kbps / 90 MB

Register
Go to the top of the page
  Insert nick Quick quote
+Quote Post
post Dec 26 2013, 19:10:16
Post #3

Правь статус, ####!111
**************
Group: Металариец
Posts: 52,634
Releases: 967
On Forums: 13 years 7 months
Thanks: 49408 time(s)
Russian Federation


Такой бриллиантище лежит, а ни одного комментария. Ну разве можно так? Ведь альбом то прекрасен и заслуживает хвалебных слов в свой адрес. Жгучие мелодии, наикайфовейший вокал, распиливающая атмосфера - вот немногие его составляющие, за которые сразу цепляется слух. Альбом короткий, не успевает наскучить, так что это в плюс.

В общем, рекомендуется крайне любителям отличной музыки!
Go to the top of the page
  Insert nick Quick quote
+Quote Post
post Jan 25 2023, 11:55:53
Post #4

Друг Уточек
****
Group: Металариец
Posts: 369
Releases: 65
From: Гексия
On Forums: 14 years 1 month
Thanks: 320 time(s)
Russian Federation


Недоделанный Judas Priest какой-то. Послушать разок и забыть... увы!
Go to the top of the page
  Insert nick Quick quote
+Quote Post

Reply to this topicStart new topic
1 User(s) are reading this topic (1 Guests and 0 Anonymous Users)
0 Members:

 



- Lo-Fi Version Support form
Copyrights and abuse reports form
Time is now: 28th January 2023 - 19:58:03