Welcome Guest ( Log In | Register )

> Gorephilia - In Death [demo] (2010), Death Metal
post Nov 3 2012, 20:24:15
Post #1

Три Литра
***
Group: Завсегдатай
Posts: 219
Releases: 150
On Forums: 9 years 8 months
Thanks: 1706 time(s)
Paraguay


(IMG:http://metalarea.org/images/audiocovers/2012_Nov/acov_tid186261_thumb.jpg)

*Artist: Gorephilia
*Album: In Death [demo]
*Year: 2010
*Genre: Death Metal
*Country: Finland (IMG:http://metalarea.org/forum/style_images/flags/Finland.png)
*Format: mp3@CBR320kbps
*Size: 29MB

Tracklist:
1. Enbodiment Of Death
2. Planet Sized Mass Grave
3. Exist To Suffer
******************************
Total playing time: 13:23



Extended info
CD-R.
Recorded in February 2010.
Produced, mixed and mastered by Tommi Otsavaara of ArchiTorture.
Artwork by Roni Дrling of Lie in Ruins

Released on tape by Me Saco Un Ojo Records in March 2011.
There were two pressings, one on black tapes and one on red tapes, both limited to 150 copies.

(IMG:http://metalarea.org/images/spectrogram/2012_Nov/11d3ad2129cc197578c36aa5a2fe8029.png)
Input File: Embodiment Of Death Preview.mp3
Channels : 2
Sample Rate : 44100
Precision : 16-bit
Duration : 00:00:45.25 = 1995437 samples = 3393.6 CDDA sectors
File Size : 1.81M
Bit Rate : 320k
Sample Encoding: MPEG audio (layer I, II or III)
Comments :
Title=Embodiment In Death
Artist=Gorephilia
Album=In Death
Tracknumber=1
Year=2010
Genre=Death Metal



Register


Go to the top of the page
  Insert nick Quick quote
+Quote Post
 
Start new topic
Replies (1 - 1)
post Dec 1 2012, 10:21:59
Post #2

brutalcesar
**************
Group: Металариец
Posts: 18,236
Releases: 71
From: Рязань
On Forums: 12 years 6 months
Thanks: 10293 time(s)
Russian Federation


Сурово нарезают (IMG:style_emoticons/default/metaler.gif)
Go to the top of the page
  Insert nick Quick quote
+Quote Post

Reply to this topicStart new topic
2 User(s) are reading this topic (2 Guests and 0 Anonymous Users)
0 Members:

 



- Lo-Fi Version Support form
Copyrights and abuse reports form
Time is now: 4th August 2021 - 14:47:36