Welcome Guest ( Log In | Register )

> Revengia - Lake Of Fire (2012), Heavy/Thrash/Groove Metal
post Nov 12 2012, 18:15:00
Post #1

Serial Uploader
Group Icon
Group: V.I.P
Posts: 37,573
Releases: 35745
From: Lithuania
On Forums: 12 years 11 months
Thanks: 432138 time(s)
Lithuania


(IMG:http://metalarea.org/images/audiocovers/2012_Nov/acov_tid186991_thumb.jpg)

*Artist: Revengia
*Album: Lake Of Fire
*Year: 2012
*Genre: Heavy/Thrash/Groove Metal
*Country: Sweden (IMG:http://metalarea.org/forum/style_images/flags/Sweden.png)
*Format: mp3@CBR320kbps
*Size: 115MB

Tracklist:
01. Free From Sin 04:59
02. His Will 02:46
03. Lake Of Fire 04:38
04. The Day I Die 05:32
05. Alone 03:47
06. Purest Of Emotions 04:57
07. Sin For Sale 06:16
08. Asylum 03:57
09. Bloodline 04:12
10. Termination By The Hand Of Creation 04:05
11. The Galleon 05:54
12. The One 01:24
******************************
Total playing time: 52:27

(IMG:http://metalarea.org/images/myspace.png)

Extended info


(IMG:http://metalarea.org/images/spectrogram/2012_Nov/e1afb16a1469f4dfa24452cb05431088.png)
Input File: 05. Alone.mp3
Channels : 2
Sample Rate : 44100
Precision : 16-bit
Duration : 00:03:48.02 = 10055770 samples = 17101.6 CDDA sectors
File Size : 9.12M
Bit Rate : 320k
Sample Encoding: MPEG audio (layer I, II or III)
Comments :
Title=Alone
Artist=Revengia
Album= Lake Of Fire
Tracknumber=5/12
Year=2012
Genre=Heavy Metal
Discnumber=1/1



Register


Go to the top of the page
  Insert nick Quick quote
+Quote Post
 
Start new topic
Replies (1 - 7)
post Nov 12 2012, 20:20:38
Post #2

Статус-хиатус
**************
Group: Металариец
Posts: 2,642
Releases: 7
From: гости
On Forums: 13 years 8 months
Thanks: 1102 time(s)
Ukraine




Thanks:
(1) Diflock,
Go to the top of the page
  Insert nick Quick quote
+Quote Post
post Nov 12 2012, 20:39:50
Post #3

quality over quantity please
*****
Group: Металариец
Posts: 402
Releases: 2
On Forums: 13 years 7 months
Thanks: 94 time(s)
Germany


The last track is in fact the second part of "The Galleon", not the bonus track.
Everything starts 1 or 2 seconds into the song as usual. Another joke release by the great plotn08. And they praise this as all exclusive... I don't even want to try the new Black Abyss.
Go to the top of the page
  Insert nick Quick quote
+Quote Post
post Nov 12 2012, 20:44:59
Post #4

Два Литра
**
Group: Завсегдатай
Posts: 197
Releases: 0
From: Беларусь
On Forums: 10 years 7 months
Thanks: 100 time(s)
Belarus


понравилось (IMG:style_emoticons/default/20.gif)
Go to the top of the page
  Insert nick Quick quote
+Quote Post
post Nov 12 2012, 21:31:30
Post #5

_ - = # Thrashogolic # = - _ ... а давайте поржём все вместе
**************
Group: Металариец
Posts: 21,095
Releases: 4444
From: 404
On Forums: 10 years 10 months
Thanks: 28052 time(s)
Ukraine


ЦИТАТА(zYkL0n @ 12th November 2012 - 21:39:50) *
... I don't even want to try the new Black Abyss.
This one Black Abyss - Possessed (2012) ?
Go to the top of the page
  Insert nick Quick quote
+Quote Post
post Feb 2 2013, 21:21:29
Post #6

No More Tears
**************
Group: Металариец
Posts: 4,991
Releases: 114
From: Тбилиси, Грузия
On Forums: 14 years 9 months
Thanks: 2406 time(s)
Georgia


2007 не понравился вроде помню
попробуем еще

Хммм вот сейчас прокатило! Играют реально круто и вокал серьезный. Молодцы.
Go to the top of the page
  Insert nick Quick quote
+Quote Post
post Apr 10 2021, 07:21:46
Post #7

Два Литра
**
Group: Завсегдатай
Posts: 167
Releases: 0
From: Russian Federation
On Forums: 14 years 8 months
Thanks: 3 time(s)
Russian Federation


Thank you very much, but unfortunately the link is no longer available (IMG:style_emoticons/default/6.gif)
Can anyone help?
Go to the top of the page
  Insert nick Quick quote
+Quote Post
post Apr 11 2021, 12:24:17
Post #8

Group Icon
Group: S-moderation team
Posts: 20,742
Releases: 1443
From: Zagreb
On Forums: 10 years 2 months
Thanks: 95087 time(s)
Croatia


Register


Thanks:
Go to the top of the page
  Insert nick Quick quote
+Quote Post

Reply to this topicStart new topic
1 User(s) are reading this topic (1 Guests and 0 Anonymous Users)
0 Members:

 



- Lo-Fi Version Support form
Copyrights and abuse reports form
Time is now: 13th May 2021 - 04:43:41