Welcome Guest ( Log In | Register )

> Nuclear Death Terror - Chaos Reigns [best of/compilation] (2012), Crust Punk/Death Metal
post Nov 16 2012, 23:26:29
Post #1

666satanath@gmail.com
Group Icon
Group: Moderation team
Posts: 6,285
Releases: 645
From: Satan-Petersburg
On Forums: 13 years 5 months
Thanks: 15935 time(s)
Russian Federation


(IMG:https://metalarea.org/images/audiocovers/2012_Nov/acov_tid187335_thumb.jpg)

*Artist: Nuclear Death Terror
*Album: Chaos Reigns [best of/compilation]
*Year: 2012
*Genre: Crust Punk/Death Metal
*Country: Denmark (IMG:https://metalarea.org/forum/style_images/flags/Denmark.png)
*Format: mp3@VBR500kbps
*Size: 60MB

Tracklist:
1. Crisis 03:06
2. Collapse 03:18
3. Descent 02:36
4. Abyss 03:21
5. Total Annihlation 02:11
6. Mindchain 02:33
7. Devolve To Submission 02:38
8. World Enslaved 02:21
9. Chaotic Alliance 02:22
10. The Darkest Age 02:30
11. Morbid Tales (Celtic Frost cover) 02:58
******************************
Total playing time: 29:54

(IMG:https://metalarea.org/images/myspace.png)

Extended info
Release date: August 14th, 2012

Label: Southern Lord Recordings

Tracks 1-4 are from the Blood Fire Chaos Death EP.
Tracks 5-7 are from the Total Annihilation EP.
Tracks 8-11 are from the Ceaseless Desolation EP.

(IMG:https://metalarea.org/images/spectrogram/2012_Nov/c6c75986ddaf03869d98ae47b3900939.png)
Input File: 5 Total Annihilation.mp3
Channels : 2
Sample Rate : 44100
Precision : 16-bit
Duration : 00:02:11.21 = 5786493 samples = 9840.97 CDDA sectors
File Size : 5.09M
Bit Rate : 310k
Sample Encoding: MPEG audio (layer I, II or III)
Comments :
Title=Total Annihilation
Artist=Nuclear Death Terror
Album=Chaos Reigns
Tracknumber=5
Year=2012
Genre=22
Discnumber=1/1


Register


This post has been edited by satanath: Nov 18 2012, 10:14:37


Go to the top of the page
  Insert nick Quick quote
+Quote Post
 
Start new topic
Replies (1 - 3)
post Nov 17 2012, 04:49:54
Post #2

Два Литра
**
Group: Завсегдатай
Posts: 156
Releases: 0
On Forums: 13 years 7 months
Thanks: 31 time(s)
Unknown


same rip thats been around for months ... missing track 11.


Go to the top of the page
  Insert nick Quick quote
+Quote Post
post Nov 17 2012, 12:54:07
Post #3

Три Литра
***
Group: Завсегдатай
Posts: 219
Releases: 0
On Forums: 18 years 2 months
Thanks: 35 time(s)
Russian Federation


vbr@500? sounds interesting...
Go to the top of the page
  Insert nick Quick quote
+Quote Post
post Nov 18 2012, 10:20:08
Post #4

666satanath@gmail.com
Group Icon
Group: Moderation team
Posts: 6,285
Releases: 645
From: Satan-Petersburg
On Forums: 13 years 5 months
Thanks: 15935 time(s)
Russian Federation


pinner, thanks!

sorry, i forgot about it. i'm add new link! and this track you can download here:

Register

sekmeth, in VBR is total number from the sum of maximum and minimum bitrates of tracks and division on 2 undertakes!

776 + 224 / 2 = 500


Thanks:
Go to the top of the page
  Insert nick Quick quote
+Quote Post

Reply to this topicStart new topic
2 User(s) are reading this topic (2 Guests and 0 Anonymous Users)
0 Members:

 



- Lo-Fi Version Support form
Copyrights and abuse reports form
Time is now: 14th April 2024 - 08:15:04