Welcome Guest ( Log In | Register )

> 

Здесь релизы с живыми прямыми ссылками на lossless

> Burnt Offering - Death Decay Complete [compilation] (1997), Death/Thrash Metal
post Nov 25 2012, 15:29:07
Post #1

\m/
Group Icon
Group: S-moderation team
Posts: 7,949
Releases: 19
From: Петропавловск-Камчатский
On Forums: 12 years 3 months
Thanks: 8043 time(s)
Russian Federation


(IMG:http://metalarea.org/images/audiocovers/2012_Nov/acov_tid188022_thumb.jpg)

*Artist: Burnt Offering
*Album: Death Decay Complete [compilation]
*Year: 1997
*Genre: Death/Thrash Metal
*Country: United States (IMG:http://metalarea.org/forum/style_images/flags/United%20States.png)
*Format: mp3@CBR320kbps
*Size: 118MB

Tracklist:
1. Kick Your Dirt 06:11
2. Leatherface 02:06
3. Prisoner Of War 02:25
4. Snow Death 02:38
5. Power Of Death 02:26
6. Beware The Axe 02:44
7. Desecration 02:19
8. Slaughterhouse Grizzle 03:39
9. Black Blasphemy 03:03
10. Graphic Violence 02:41
11. P.F.D. (Pure Fuckinґ Death) 05:24
12. Leatherface (demo) 02:12
13. Desecration (demo) 02:16
14. Black Blasphemy (demo) 03:15
15. Prisoner Of War (demo) 02:31
16. Beware The Axe (demo) 02:55
17. Power Of Death (demo) 02:30
******************************
Total playing time: 51:15

Extended info
+3% Recovery Data

(IMG:http://metalarea.org/images/spectrogram/2012_Nov/736e9a3a66bb02f880586a9484995ca5.png)
Input File: 02. Leatherface.mp3
Channels : 2
Sample Rate : 44100
Precision : 16-bit
Duration : 00:00:24.40 = 1076084 samples = 1830.07 CDDA sectors
File Size : 976k
Bit Rate : 320k
Sample Encoding: MPEG audio (layer I, II or III)
Comments :
Title=Leatherface
Artist=Burnt Offering
Album=Death Decay Complete
Tracknumber=2
Year=1997
Genre=144

Register


Go to the top of the page
  Insert nick Quick quote
+Quote Post
 
Start new topic
Replies (1 - 5)
post Nov 25 2012, 17:51:42
Post #2

Два Литра
**
Group: Завсегдатай
Posts: 167
Releases: 0
From: Belo Horizonte
On Forums: 10 years 5 months
Thanks: 45 time(s)
Brazil


"Death Decay Complete" is an re-release in CD-R of "Burnt Offering (S/T - debut-LP)'89" + "Death Decay" (demo - 86).
Highly Recommended for listeners of Vacant Grave, Fьhrer (Thrash Metal/US), Master (US), Bloosfeast, Energetic Krusher, Arbitrater, Possessed, Death Strike, etc.
Killer band...


Thanks:
Go to the top of the page
  Insert nick Quick quote
+Quote Post
post Nov 25 2012, 19:25:11
Post #3

Шесть Литров
******
Group: Металариец
Posts: 673
Releases: 4
From: Ukraine
On Forums: 12 years 8 months
Thanks: 388 time(s)
Ukraine


Спасибо! Эти перцы зачетные!
Go to the top of the page
  Insert nick Quick quote
+Quote Post
Thrashover
post Dec 27 2012, 18:52:37
Post #4

Guests team






Огонь!
Go to the top of the page
  Insert nick Quick quote
+Quote Post
post Jun 12 2019, 19:00:11
Post #5

Правь статус, ####!111
Group Icon
Group: S-moderation team
Posts: 21,960
Releases: 1443
On Forums: 10 years 6 months
Thanks: 102653 time(s)
Unknown


Register


Go to the top of the page
  Insert nick Quick quote
+Quote Post
post Apr 24 2020, 00:59:49
Post #6

Правь статус, ####!111
**************
Group: Металариец
Posts: 7,426
Releases: 165
From: URUGUAY
On Forums: 14 years 11 months
Thanks: 22264 time(s)
Uruguay


320
Register


Go to the top of the page
  Insert nick Quick quote
+Quote Post

Reply to this topicStart new topic
2 User(s) are reading this topic (2 Guests and 0 Anonymous Users)
0 Members:

 



- Lo-Fi Version Support form
Copyrights and abuse reports form
Time is now: 25th September 2021 - 00:46:32