Welcome Guest ( Log In | Register )

> Fire To Fields - Products (2012), Doom/Industrial Metal/Sludge
post Nov 30 2012, 18:29:50
Post #1

Три Литра
***
Group: Завсегдатай
Posts: 209
Releases: 8
From: Нск
On Forums: 13 years 6 months
Thanks: 143 time(s)
Russian Federation


(IMG:http://metalarea.org/images/audiocovers/2012_Nov/acov_tid188396_thumb.jpg)

*Artist: Fire To Fields
*Album: Products
*Year: 2012
*Genre: Doom/Industrial Metal/Sludge
*Country: Russian Federation (IMG:http://metalarea.org/forum/style_images/flags/Russian%20Federation.png)
*Format: mp3@CBR320kbps
*Size: 127MB

Tracklist:
1. From Illness Into Sickness 7:08
2. Manufacturing Corpse 10:44
3. Fat 12:22
4. Superstore Fodder 11:19
5. Fire To Fields 6:19
6. Depress 7:49
******************************
Total playing time: 55:41



Extended info


(IMG:http://metalarea.org/images/spectrogram/2012_Nov/46735971fe63c55064d3a1ee5bc8a4b4.png)
Input File: 01. From Illness Into Sickness.mp3
Channels : 2
Sample Rate : 44100
Precision : 16-bit
Duration : 00:07:08.29 = 18887765 samples = 32122 CDDA sectors
File Size : 17.1M
Bit Rate : 320k
Sample Encoding: MPEG audio (layer I, II or III)
Comments :
Title=From Illness Into Sickness
Artist=Fire To Fields
Album=Products
Tracknumber=01/06
Year=2012
Genre=Sludge


Register


This post has been edited by chickenfucker: Dec 1 2012, 00:43:26


Go to the top of the page
  Insert nick Quick quote
+Quote Post
 
Start new topic
Replies (1 - 1)
post May 28 2017, 07:40:15
Post #2

Маньяк
**********
Group: Металариец
Posts: 1,098
Releases: 14
On Forums: 12 years 10 months
Thanks: 957 time(s)
Russian Federation


Альбом конечно не идеальный, но мне он все равно очень нравиться. В моем топе отечественного сладжа эта группа на первых местах.
Register


Thanks:
(1) ent404,
Go to the top of the page
  Insert nick Quick quote
+Quote Post

Reply to this topicStart new topic
2 User(s) are reading this topic (2 Guests and 0 Anonymous Users)
0 Members:

 



- Lo-Fi Version Support form
Copyrights and abuse reports form
Time is now: 31st July 2021 - 10:05:20