Welcome Guest ( Log In | Register )

> Bloody Roots - Az Ígéretek Földjén (2012), Thrash Metal
post Dec 2 2012, 07:56:00
Post #1

Аннигилятор пивА
Group Icon
Group: V.I.P
Posts: 52,360
Releases: 16550
From: Koenigsberg - TILZIT
On Forums: 15 years 3 weeks
Thanks: 367715 time(s)
Russian Federation


(IMG:http://metalarea.org/images/audiocovers/2012_Dec/acov_tid188671_thumb.jpg)

*Artist: Bloody Roots
*Album: Az Ígéretek Földjén
*Year: 2012
*Genre: Thrash Metal
*Country: Hungary (IMG:http://metalarea.org/forum/style_images/flags/Hungary.png)
*Format: mp3@CBR320kbps
*Size: 113MB

Tracklist:
01. Reménység Templom
02. Hazugságok Oltárán
03. Hozd El Uram
04. Vérből – Vérbe
05. Népek útján
06. Vérző Népek Tavasza
07. Ígéretek Földjén
08. Fekete átok Foglya
09. Vezessetek útra
10. Jöjj Menedék
11. Felesküdött Az ég…
Bónusz:
12. Kiválasztott (Moby Dick cover)
13. Refuse Resist (Sepultura cover)
14. Roots Bloody Roots (Sepultura cover)
******************************
Total playing time: 47:23

(IMG:http://metalarea.org/images/myspace.png)

Extended info
Бошкотрясный трэш с элементами техникала и эпика. Оченно крутой альбом получился.
Schmiedl Tamás - Vocals, Guitar (Moby Dick (Hun))
Schmiedl Balázs - Guitar(Amadea)
Horváth Tamás - Bass(Cavum)
Tarcsai Ádám - Drums
Guest:
Vörös Attila - gitár (Nevermore)
Ficzek András - ének, vokál (Dalriada)
Szuna Péter - basszusgitár (K3)



(IMG:http://metalarea.org/images/spectrogram/2012_Dec/352a4e683b6fe8c5c1c7ab4031d1a719.png)
Input File: 02. Hazugsбgok oltбrбn.mp3
Channels : 2
Sample Rate : 44100
Precision : 16-bit
Duration : 00:03:51.00 = 10187056 samples = 17324.9 CDDA sectors
File Size : 9.24M
Bit Rate : 320k
Sample Encoding: MPEG audio (layer I, II or III)
Comments :
Title=HazugsГЎgok oltГЎrГЎn
Artist=Bloody Roots
Album=Az ígéretek földjén
Tracknumber=02
Year=2012
Genre=Technical Thrash Metal



Register


Go to the top of the page
  Insert nick Quick quote
+Quote Post
 
Start new topic
Replies (1 - 8)
post Dec 2 2012, 09:48:22
Post #2

Аннигилятор пивА
Group Icon
Group: V.I.P
Posts: 52,360
Releases: 16550
From: Koenigsberg - TILZIT
On Forums: 15 years 3 weeks
Thanks: 367715 time(s)
Russian Federation


А по моему ваще крутень, уникальный трэш, комбинация олдскульного бошкотряса и кача, эпико-фолковых интонаций в мелодиях и хоровых припевах, плюс ко всему шикарная игра с клевыми солягами и техникал фишками. Смачно и не стандартно.
з.ы. по мне единственно что бонусные кавера смотрятся несколько выходя из концепта самого альбома, ну это не фатально
Go to the top of the page
  Insert nick Quick quote
+Quote Post
post Dec 2 2012, 11:18:49
Post #3

Пять Литров
*****
Group: Металариец
Posts: 420
Releases: 0
On Forums: 10 years 2 weeks
Thanks: 65 time(s)
Unknown


эстетичному (IMG:style_emoticons/default/9.gif) ,было б на инглише-придраться не к чему (IMG:style_emoticons/default/smile1.gif)
Go to the top of the page
  Insert nick Quick quote
+Quote Post
post Dec 2 2012, 11:23:33
Post #4

brutalcesar
**************
Group: Металариец
Posts: 18,207
Releases: 71
From: Рязань
On Forums: 12 years 5 months
Thanks: 10252 time(s)
Russian Federation


Венгерский, наоборот, придаёт колориту ещё.

Go to the top of the page
  Insert nick Quick quote
+Quote Post
post Dec 2 2012, 12:28:45
Post #5

Аннигилятор пивА
Group Icon
Group: V.I.P
Posts: 52,360
Releases: 16550
From: Koenigsberg - TILZIT
On Forums: 15 years 3 weeks
Thanks: 367715 time(s)
Russian Federation


ага-ага
Go to the top of the page
  Insert nick Quick quote
+Quote Post
post Dec 2 2012, 14:29:03
Post #6

_ - = # Thrashogolic # = - _ ... а давайте поржём все вместе
**************
Group: Металариец
Posts: 21,095
Releases: 4444
From: 404
On Forums: 11 years 6 days
Thanks: 28071 time(s)
Ukraine


also them Bloody Roots - Isten Kezében (2010)


Thanks:
(1) Diflock,
Go to the top of the page
  Insert nick Quick quote
+Quote Post
post Jun 10 2021, 21:20:37    Сейчас играет: Re-up please ;-)
Post #7

Три Литра
***
Group: Завсегдатай
Posts: 298
Releases: 0
From: Sofia
On Forums: 13 years 8 months
Thanks: 16 time(s)
Bulgaria


Please re-up (IMG:style_emoticons/default/22.gif) (IMG:style_emoticons/default/22.gif)
Go to the top of the page
  Insert nick Quick quote
+Quote Post
post Jun 12 2021, 04:41:47
Post #8

Group Icon
Group: S-moderation team
Posts: 21,161
Releases: 1443
From: Zagreb
On Forums: 10 years 3 months
Thanks: 97563 time(s)
Croatia


Register


Go to the top of the page
  Insert nick Quick quote
+Quote Post
post Jun 12 2021, 07:23:45
Post #9

Три Литра
***
Group: Завсегдатай
Posts: 298
Releases: 0
From: Sofia
On Forums: 13 years 8 months
Thanks: 16 time(s)
Bulgaria


Cool rarity ! (IMG:style_emoticons/default/11.gif) (IMG:style_emoticons/default/11.gif) (IMG:style_emoticons/default/11.gif)

QUOTE(Borderline1991 @ Jun 12 2021, 03:41:47) *

Go to the top of the page
  Insert nick Quick quote
+Quote Post

Reply to this topicStart new topic
2 User(s) are reading this topic (2 Guests and 0 Anonymous Users)
0 Members:

 



- Lo-Fi Version Support form
Copyrights and abuse reports form
Time is now: 22nd June 2021 - 06:35:00