Welcome Guest ( Log In | Register )

> Ouijabeard - Die And Let Live (2012), Heavy Metal
post Dec 2 2012, 14:34:39
Post #1

Serial Uploader
Group Icon
Group: V.I.P
Posts: 37,642
Releases: 35808
From: Lithuania
On Forums: 13 years 4 months
Thanks: 434132 time(s)
Lithuania


(IMG:http://metalarea.org/images/audiocovers/2012_Dec/acov_tid188712_thumb.jpg)

*Artist: Ouijabeard
*Album: Die And Let Live
*Year: 2012
*Genre: Heavy Metal
*Country: Sweden (IMG:http://metalarea.org/forum/style_images/flags/Sweden.png)
*Format: mp3@CBR320kbps
*Size: 74MB

Tracklist:
01. Eyes In The Night 04:18
02. Across The Room 02:27
03. The End 03:48
04. Curse Of The Stones 02:19
05. Alexandra 02:56
06. Moon Empire 03:50
07. Signs Of Moreia 02:16
08. Keep The Streets Empty For Me 04:05
09. Die And Let Live 07:34
******************************
Total playing time: 33:33



Extended info


(IMG:http://metalarea.org/images/spectrogram/2012_Dec/daa1663cf10444ee5a5b13b25ef3855f.png)
Input File: 02 Across The Room.mp3
Channels : 2
Sample Rate : 44100
Precision : 16-bit
Duration : 00:02:27.66 = 6511894 samples = 11074.6 CDDA sectors
File Size : 5.91M
Bit Rate : 320k
Sample Encoding: MPEG audio (layer I, II or III)
Comments :
Title=Across The Room
Artist=OUIJABEARD
Album= DIE AND LET LIVE
Tracknumber=2
Year=2012



Register


Go to the top of the page
  Insert nick Quick quote
+Quote Post
 
Start new topic
Replies (1 - 3)
post Dec 8 2012, 09:28:47
Post #2

brutalcesar
**************
Group: Металариец
Posts: 18,250
Releases: 71
From: Рязань
On Forums: 12 years 8 months
Thanks: 10366 time(s)
Russian Federation


Слабенько как-то.
Слабенько и невыразительно.
Go to the top of the page
  Insert nick Quick quote
+Quote Post
post Jul 19 2018, 12:06:12
Post #3

Правь статус, ####!111
**************
Group: Металариец
Posts: 4,060
Releases: 1
From: Рейх
On Forums: 15 years 1 month
Thanks: 976 time(s)
Ukraine


ЦИТАТА(cesar @ Dec 8 2012, 13:28:47) *
Слабенько как-то.
Слабенько и невыразительно.

Попутал слегка ?

Материал шикарный на стыках харда/хеви и прогрессивки. Тут вокальные партии в 9 песни исполняет небезызвестный Blaze Bayley
Go to the top of the page
  Insert nick Quick quote
+Quote Post
post Oct 13 2021, 19:44:54
Post #4

Шесть Литров
******
Group: Металариец
Posts: 516
Releases: 99
On Forums: 2 years 4 months
Thanks: 1683 time(s)
Russian Federation


mp3@CBR320kbps

Register


Thanks:
(1) wgs73,
Go to the top of the page
  Insert nick Quick quote
+Quote Post

Reply to this topicStart new topic
1 User(s) are reading this topic (1 Guests and 0 Anonymous Users)
0 Members:

 



- Lo-Fi Version Support form
Copyrights and abuse reports form
Time is now: 15th October 2021 - 22:29:25