Welcome Guest ( Log In | Register )

> Xehanort - Shinigami [single] (2012), Progressive Deathcore
post Dec 14 2012, 18:21:49
Post #1

Девять Литров
*********
Group: Металариец
Posts: 991
Releases: 91
On Forums: 10 years 5 months
Thanks: 2274 time(s)
Unknown


(IMG:http://metalarea.org/images/audiocovers/2012_Dec/acov_tid189669_thumb.jpg)

*Artist: Xehanort
*Album: Shinigami [single]
*Year: 2012
*Genre: Progressive Deathcore
*Country: United States (IMG:http://metalarea.org/forum/style_images/flags/United%20States.png)
*Format: mp3@CBR320kbps
*Size: 21MB

Tracklist:
1. Shinigami Act I: Waltz of Decaying 03:44
2. Shinigami Act II: Pulse Osmosis 04:15
******************************
Total playing time: 7:59

Extended info


(IMG:http://metalarea.org/images/spectrogram/2012_Dec/e1115b92f417d0a930160d695a9ae3a2.png)
Input File: Xehanort - Shinigami -Single- - 01 Shinigami Act 1- Waltz of Decaying.mp3
Channels : 2
Sample Rate : 44100
Precision : 16-bit
Duration : 00:00:06.09 = 268437 samples = 456.526 CDDA sectors
File Size : 244k
Bit Rate : 320k
Sample Encoding: MPEG audio (layer I, II or III)
Comments :
Title=Shinigami Act 1: Waltz of Decaying
Artist=Xehanort
Album=Shinigami
Tracknumber=1
Year=2012



Register


Thanks:
(1) varlam4,
Go to the top of the page
  Insert nick Quick quote
+Quote Post
 
Start new topic
Replies (1 - 1)
post Dec 14 2012, 22:05:54
Post #2

Up From The Grave
********
Group: Металариец
Posts: 893
Releases: 122
From: Minsk
On Forums: 12 years 2 months
Thanks: 2413 time(s)
Belarus


Go to the top of the page
  Insert nick Quick quote
+Quote Post

Reply to this topicStart new topic
1 User(s) are reading this topic (1 Guests and 0 Anonymous Users)
0 Members:

 



- Lo-Fi Version Support form
Copyrights and abuse reports form
Time is now: 20th September 2021 - 03:57:40