Welcome Guest ( Log In | Register )

Объявления

* gmail.com упорно продолжает считать почту с нас "unsolicited" и отбивает в том числе и письма активации, поэтому просьба использовать альтернативные почтовые ящики.
------------
* gmail.com continues reject all mail from us as "unsolicited" (activation mails too) therefore please use alternate mail servers.
> Instinct - The Black Wound (2012), Depressive Black Metal
post Dec 18 2012, 18:11:42
Post #1

Два Литра
**
Group: Завсегдатай
Posts: 162
Releases: 1
From: Москва
On Forums: 14 years 9 months
Thanks: 112 time(s)
Russian Federation


(IMG:http://metalarea.org/images/audiocovers/2012_Dec/acov_tid189955_thumb.jpg)

*Artist: Instinct
*Album: The Black Wound
*Year: 2012
*Genre: Depressive Black Metal
*Country: United Kingdom (IMG:http://metalarea.org/forum/style_images/flags/United%20Kingdom.png)
*Format: mp3@CBR320kbps
*Size: 136MB

Tracklist:
01. Thunor Hycgh 18:22
02. Chamber Dark 05:59
03. The Black Wound 35:17
******************************
Total playing time: 59:38

Extended info
...I lay on ancient mounds, in silence
the elusive energy returns to her,
lost within, frozen lunar illumination
where hot blood and cold soil unite,
black manifestation immerses
through abstruse terror comes clarity...

Limited to 300, first 100 numbered in blood.

(IMG:http://metalarea.org/images/spectrogram/2012_Dec/1805630395a031095f1d4d5850389545.png)
Input File: 02 - Chamber Dark.mp3
Channels : 2
Sample Rate : 44100
Precision : 16-bit
Duration : 00:05:58.99 = 15831239 samples = 26923.9 CDDA sectors
File Size : 14.4M
Bit Rate : 320k
Sample Encoding: MPEG audio (layer I, II or III)
Comments :
Title=Chamber Dark
Artist=Instinct
Album=The Black Wound
Tracknumber=2/3
Year=2012
Genre=Other



Register


Мой первый релиз на арее! (IMG:style_emoticons/default/smile1.gif)

This post has been edited by Абигор: Jan 7 2017, 10:43:58


Go to the top of the page
  Insert nick Quick quote
+Quote Post
 
Start new topic
Replies (1 - 4)
post Dec 18 2012, 19:39:27
Post #2

Статус-хиатус
**************
Group: Металариец
Posts: 2,645
Releases: 7
From: гости
On Forums: 16 years 8 months
Thanks: 1113 time(s)
Ukraine




Thanks:
(1) libertine,
Go to the top of the page
  Insert nick Quick quote
+Quote Post
post Jan 5 2013, 17:04:54
Post #3

Мегаманьяк
***********
Group: Металариец
Posts: 1,872
Releases: 15
On Forums: 13 years 5 months
Thanks: 5494 time(s)
Unknown


Красивая, неспешная музыка. Но вот продолжительность жесть. Последний трек впринципе заканчивается на 13-ой минуте, а дальше идет 20 минут тупого эмбиент-гудения.
Go to the top of the page
  Insert nick Quick quote
+Quote Post
post Apr 13 2013, 12:55:11
Post #4

sic
***********
Group: Металариец
Posts: 1,606
Releases: 9
From: Волынь - земля родная, сейчас на Львовщине
On Forums: 16 years 10 months
Thanks: 887 time(s)
Ukraine


Добротный такой атмосферный альбом! (IMG:style_emoticons/default/20.gif)
Go to the top of the page
  Insert nick Quick quote
+Quote Post
post Sep 23 2021, 19:26:38
Post #5

Правь статус, ####!111
**************
Group: Металариец
Posts: 6,135
Releases: 0
On Forums: 5 years 10 months
Thanks: 19855 time(s)
Russian Federation


136 mb/320 kbps
Register


Go to the top of the page
  Insert nick Quick quote
+Quote Post

Reply to this topicStart new topic
2 User(s) are reading this topic (2 Guests and 0 Anonymous Users)
0 Members:

 



- Lo-Fi Version Support form
Copyrights and abuse reports form
Time is now: 21st May 2024 - 07:47:07