Welcome Guest ( Log In | Register )

> Napalm Christ - Demo [demo] (2011), Death/Doom Metal/Grindcore
post Dec 19 2012, 08:35:46
Post #1

Serial Uploader
Group Icon
Group: V.I.P
Posts: 42,365
Releases: 40435
From: Lithuania
On Forums: 15 years 10 months
Thanks: 516341 time(s)
Lithuania


(IMG:http://metalarea.org/images/audiocovers/2012_Dec/acov_tid189993_thumb.jpg)

*Artist: Napalm Christ
*Album: Demo [demo]
*Year: 2011
*Genre: Death/Doom Metal/Grindcore
*Country: United States (IMG:http://metalarea.org/forum/style_images/flags/United%20States.png)
*Format: mp3@CBR320kbps
*Size: 7MB

Tracklist:
01. The Seasons Of Dirt 03:01
******************************
Total playing time: 3:01

(IMG:http://metalarea.org/images/myspace.png)

(IMG:http://metalarea.org/images/youtube.png)

Extended info


(IMG:http://metalarea.org/images/spectrogram/2012_Dec/e1ba2b634d1d734976ba831287a8bdfa.png)
Input File: 01. The Seasons of Dirt.mp3
Channels : 2
Sample Rate : 44100
Precision : 16-bit
Duration : 00:03:01.06 = 7984614 samples = 13579.3 CDDA sectors
File Size : 7.25M
Bit Rate : 320k
Sample Encoding: MPEG audio (layer I, II or III)
Comments :
Title=The Seasons of Dirt
Artist=Napalm Christ
Album=Demo
Tracknumber=1
Year=2011
Genre=death/doom/grind/sludge



Register


Go to the top of the page
  Insert nick Quick quote
+Quote Post
 
Start new topic
Replies (1 - 4)
post Dec 19 2012, 18:55:12
Post #2

Два Литра
**
Group: Завсегдатай
Posts: 156
Releases: 0
On Forums: 13 years 7 months
Thanks: 31 time(s)
Unknown


current/former members of Rwake, Shredded Corpse, Shitfire


Thanks:
Go to the top of the page
  Insert nick Quick quote
+Quote Post
post Jan 2 2013, 12:20:19
Post #3

666satanath@gmail.com
Group Icon
Group: Moderation team
Posts: 6,285
Releases: 645
From: Satan-Petersburg
On Forums: 13 years 5 months
Thanks: 15935 time(s)
Russian Federation


(IMG:http://metalarea.org/images/audiocovers/2013_Jan/acov_tid190994.jpg)

*Artist: Napalm Christ
*Album: Promo [single]
*Year: 2012
*Genre: Death/Doom Metal
*Country: United States (IMG:http://metalarea.org/forum/style_images/flags/United%20States.png)
*Format: mp3@CBR320kbps
*Size: 6MB

Tracklist:
1. The Seasons Of Dirt 3:01
******************************
Total playing time: 3:01

(IMG:http://metalarea.org/images/youtube.png)



Extended info
Death/Doom/Grind/Thrash from Little Rock, Arkansas features members of Pale Unearthed, Shredded Corpse, Shitfire, Rwake and others.

(IMG:http://metalarea.org/images/spectrogram/2013_Jan/baa4af20820dc2ae09b1d3f69031a33d.png)
Input File: NAPALM CHRIST - THE SEASONS OF DIRT.mp3
Channels : 2
Sample Rate : 44100
Precision : 16-bit
Duration : 00:03:01.06 = 7984614 samples = 13579.3 CDDA sectors
File Size : 7.25M
Bit Rate : 320k
Sample Encoding: MPEG audio (layer I, II or III)
Comments :
Title=The Seasons of Dirt
Artist=NAPALM CHRIST
Tracknumber=1
Year=2012
Genre=death/doom/grind/sludge



Register


Go to the top of the page
  Insert nick Quick quote
+Quote Post
NapalmChrist
post Oct 6 2013, 07:57:23
Post #4

Guests team






Napalm Christ - 2013 Demo
(IMG:http://f0.bcbits.com/img/a4130946950_10.jpg)
-Stream/Free Download


Register

-Contact
napalmchrist@gmail.com



The 2013 Demo is available on limited edition cassette from Goatprayer Records (UK).
Order at: http://goatprayerrecords.bigcartel.com/pro...hrist-demo-2013

Kiffin Rogers - Guitar, Vocals
Michael Lawrence - Guitar
Alan Wells - Bass, Vocals
David Sroczynski - Drums

Recorded by Alan Wells with assistance from Keith Bracy (Little Rock, AR)
Mastered by Collin Jordan at Boiler Room Mastering (Chicago, IL)
Artwork by Dennis Lee Hughes
Go to the top of the page
  Insert nick Quick quote
+Quote Post
NapalmChrist
post Oct 6 2013, 08:04:40
Post #5

Guests team






Napalm Christ - 2013 Demo

(IMG:http://f0.bcbits.com/img/0001795432_10.jpg)

-Stream/Free Download


Register


Register

Available on cassette from Goatprayer Records
Order at: http://goatprayerrecords.bigcartel.com/pro...hrist-demo-2013

-Contact
napalmchrist@gmail.com

www.facebook.com/pages/Napalm-Christ/155428467808655

Kiffin Rogers - Guitar, Vocals
Michael Lawrence - Guitar
Alan Wells - Bass, Vocals
David Sroczynski - Drums

Recorded by Alan Wells with assistance from Keith Bracy (Little Rock, AR)
Mastered by Collin Jordan at Boiler Room Mastering (Chicago, IL)
Artwork by Dennis Lee Hughes

http://www.youtube.com/watch?v=apNrK3aWAiM

"Brilliant stuff that borders on early UK Doom/Death melancholic beauty"
http://www.hellridemusicforums.com/forum/s...2032#post422032

"With the strength of this demo, a brief closing song just wouldn't be right, so it's down to Burning Away The Scourge to ensure that you turn this tape back over and play it again and again, which you will."
http://thisnoiseisours.blogspot.co.uk/2013...-2013-demo.html

"4.5 out of 5"
http://headbangorgtfo.com/review-napalm-christ

"I could just go on and say that this albums is FUCKING AWESOME"
http://thedarkskiesaboveus.blogspot.com/20...-2013-demo.html
Go to the top of the page
  Insert nick Quick quote
+Quote Post

Reply to this topicStart new topic
2 User(s) are reading this topic (2 Guests and 0 Anonymous Users)
0 Members:

 



- Lo-Fi Version Support form
Copyrights and abuse reports form
Time is now: 14th April 2024 - 09:43:28