Welcome Guest ( Log In | Register )

> Early Graves - Red Horse (2012), Thrash/Death Metal/Grindcore
post Jan 13 2013, 23:23:05
Post #1

Мастер волшебного кнута
**************
Group: Металариец
Posts: 3,850
Releases: 3564
From: Кронштадт, Санкт-Петербург
On Forums: 12 years 7 months
Thanks: 21783 time(s)
Russian Federation


(IMG:http://metalarea.org/images/audiocovers/2013_Jan/acov_tid191793_thumb.jpeg)

*Artist: Early Graves
*Album: Red Horse
*Year: 2012
*Genre: Thrash/Death Metal/Grindcore
*Country: United States (IMG:http://metalarea.org/forum/style_images/flags/United%20States.png)
*Format: mp3@CBR320kbps
*Size: 75MB

Tracklist:
01. Skinwalker 05:55
02. Misery 02:16
03. Days Grow Cold 04:33
04. Red Horse 03:03
05. Apocalyptic Nights 02:27
06. Death Obsessed 04:40
07. Pure Hell 03:35
08. Quietus 06:11
******************************
Total playing time: 32:40

(IMG:http://metalarea.org/images/myspace.png)

Extended info


(IMG:http://metalarea.org/images/spectrogram/2013_Jan/b96195e9679691938bd20a63c10baa25.png)
Input File: 01 Skinwalker.mp3
Channels : 2
Sample Rate : 44100
Precision : 16-bit
Duration : 00:05:55.00 = 15655500 samples = 26625 CDDA sectors
File Size : 14.2M
Bit Rate : 321k
Sample Encoding: MPEG audio (layer I, II or III)
Comments :
Title=Skinwalker
Artist=Early Graves
Album=Red Horse
Tracknumber=1
Year=2012
Genre=Hardcore



Register


Go to the top of the page
  Insert nick Quick quote
+Quote Post
 
Start new topic
Replies (1 - 5)
post Jan 14 2013, 01:02:02
Post #2

_ - = # Thrashogolic # = - _ ... а давайте поржём все вместе
**************
Group: Металариец
Posts: 21,095
Releases: 4444
From: 404
On Forums: 9 years 11 months
Thanks: 27855 time(s)
Ukraine


ЦИТАТА(металлист @ 14th January 2013 - 00:23:05) *
Early Graves - Red Horse (2012), Thrash/Death Metal/Grindcore
а по-мойму это не те Early Graves, а металкорщики.


Thanks:
(1) Diflock,
Go to the top of the page
  Insert nick Quick quote
+Quote Post
post Jan 14 2013, 01:45:43
Post #3

Литр
*
Group: Подсевший
Posts: 86
Releases: 32
From: DONBASS
On Forums: 8 years 2 months
Thanks: 509 time(s)
Ukraine


скорей всего

youtube.com


Thanks:
(1) BioMax,
Go to the top of the page
  Insert nick Quick quote
+Quote Post
post Jan 14 2013, 02:58:36
Post #4

Два Литра
**
Group: Завсегдатай
Posts: 155
Releases: 0
On Forums: 9 years 9 months
Thanks: 31 time(s)
Unknown


Genre: Metallic Crust Punk^


Thanks:
(1) BioMax,
Go to the top of the page
  Insert nick Quick quote
+Quote Post
post Feb 17 2020, 00:12:44
Post #5

Два Литра
**
Group: Завсегдатай
Posts: 143
Releases: 0
On Forums: 1 year 4 weeks
Thanks: 9 time(s)
Russian Federation


Добавьте ссылку, пожалуйста
Go to the top of the page
  Insert nick Quick quote
+Quote Post
post Feb 18 2020, 13:53:19
Post #6

Добрый
**************
Group: Металариец
Posts: 3,675
Releases: 0
On Forums: 1 year 11 months
Thanks: 5989 time(s)
Russian Federation


76 mb/320 kbps
Register


Go to the top of the page
  Insert nick Quick quote
+Quote Post

Reply to this topicStart new topic
1 User(s) are reading this topic (1 Guests and 0 Anonymous Users)
0 Members:

 



- Lo-Fi Version Support form
Copyrights and abuse reports form
Time is now: 5th June 2020 - 16:50:15