Welcome Guest ( Log In | Register )

> И неформату есть предел.

Рэп/хип-хоп/шансон/поп удаляются. Для них есть свои порталы.

> The Casualties - Resistance (2012), Street Punk Rock
post Jan 31 2013, 14:13:35
Post #1

\m/
Group Icon
Group: S-moderation team
Posts: 7,908
Releases: 19
From: Петропавловск-Камчатский
On Forums: 11 years 10 months
Thanks: 7938 time(s)
Russian Federation


(IMG:http://metalarea.org/images/audiocovers/2013_Jan/acov_tid193072_thumb.jpg)

*Artist: The Casualties
*Album: Resistance
*Year: 2012
*Genre: Street Punk Rock
*Country: United States (IMG:http://metalarea.org/forum/style_images/flags/United%20States.png)
*Format: mp3@CBR320kbps
*Size: 87MB

Tracklist:
01. My Blood. My Life. Always Forward.
02. Behind Barbed Wire
03. Resistance
04. Modern Day Slaves
05. Warriors On The Road
06. South East Asian Rebels
07. Morality Police
08. Brick Wall Justice
09. Always Walk Alone
10. Constant Struggle
11. It's Coming Down On You
12. Life On The Line
13. No Hope
14. Corazones Intoxicados
15. Soul Of Fire (Bonus Track)
16. Voice Of The Outcast
******************************
Total playing time: 38:12

Extended info
+3% recovery data

(IMG:http://metalarea.org/images/spectrogram/2013_Jan/d20e278e48541db992e2755fca4c2062.png)
Input File: 01. My Blood. My Life. Always Forward..mp3
Channels : 2
Sample Rate : 48000
Precision : 16-bit
Duration : 00:00:16.78 = 805392 samples ~ 1258.42 CDDA sectors
File Size : 671k
Bit Rate : 320k
Sample Encoding: MPEG audio (layer I, II or III)
Comments :
Title=My Blood. My Life. Always Forw
Artist=The Casualties
Album=Resistance
Tracknumber=1
Year=2012
Genre=43



Register


Go to the top of the page
  Insert nick Quick quote
+Quote Post
 
Start new topic
Replies (1 - 2)
post Jan 31 2013, 15:03:36
Post #2

Black Metal - Dødsengel
**********
Group: Металариец
Posts: 1,350
Releases: 357
From: Black Hole Sokolov, region Karlovy Vary
On Forums: 12 years 1 month
Thanks: 7221 time(s)
Czech Republic


Thanx! Another great Punk - Hardcore band. (IMG:style_emoticons/default/9.gif)


Thanks:
(1) DarkHorde,
Go to the top of the page
  Insert nick Quick quote
+Quote Post
post Jan 18 2021, 04:31:56
Post #3

Четыре Литра
****
Group: Металариец
Posts: 386
Releases: 17
On Forums: 7 years 7 months
Thanks: 723 time(s)
Iceland


Re-Upload


Register


Thanks:
Go to the top of the page
  Insert nick Quick quote
+Quote Post

Reply to this topicStart new topic
1 User(s) are reading this topic (1 Guests and 0 Anonymous Users)
0 Members:

 



- Lo-Fi Version Support form
Copyrights and abuse reports form
Time is now: 21st April 2021 - 12:57:55