Welcome Guest ( Log In | Register )

> Wolf Spider - Feniks [ep] (2013), Melodic Heavy/Thrash Metal
post Feb 5 2013, 12:17:05
Post #1

_ - = # Thrashogolic # = - _ ... а давайте поржём все вместе
**************
Group: Металариец
Posts: 21,046
Releases: 4444
From: 404
On Forums: 8 years 5 months
Thanks: 27291 time(s)
Ukraine


(IMG:http://metalarea.org/images/audiocovers/2013_Feb/acov_tid193419_thumb.jpg)

*Artist: Wolf Spider
*Album: Feniks [ep]
*Year: 2013
*Genre: Melodic Heavy/Thrash Metal
*Country: Poland (IMG:http://metalarea.org/forum/style_images/flags/Poland.png)
*Format: mp3@CBR320kbps
*Size: 45Mb

Tracklist:
01. To Twój Czas
02. Walka
03. Psycho Wojna
04. It’s Your Time
05. Psycho War
******************************
Total playing time: 20:42

Extended info
Они вернулись!
Пока что раздобыл транскодищще. (IMG:style_emoticons/default/smile2.gif)
Просьба перенести в Low Bitrate

(IMG:http://metalarea.org/images/spectrogram/2013_Feb/470c7a9983f51cd7f300d1575983259b.png)
Input File: 01 To Tw+¦j czas.mp3
Channels : 2
Sample Rate : 44100
Precision : 16-bit
Duration : 00:03:44.07 = 9881619 samples = 16805.5 CDDA sectors
File Size : 8.97M
Bit Rate : 320k
Sample Encoding: MPEG audio (layer I, II or III)
Comments :
Title=To TwГіj czas
Artist=Wolf Spider
Album=Feniks (EP)
Tracknumber=1
Year=2013
Genre=Thrash Metal



Register


Go to the top of the page
  Insert nick Quick quote
+Quote Post
 
Start new topic
Replies (1 - 8)
post Feb 5 2013, 13:49:53
Post #2

Up From The Grave
********
Group: Металариец
Posts: 841
Releases: 116
From: Minsk
On Forums: 9 years 4 months
Thanks: 2275 time(s)
Belarus






Thanks:
(1) Diflock,
Go to the top of the page
  Insert nick Quick quote
+Quote Post
post Feb 5 2013, 14:01:17
Post #3

Аннигилятор пивА
Group Icon
Group: V.I.P
Posts: 50,762
Releases: 15819
From: Koenigsberg - TILZIT
On Forums: 12 years 6 months
Thanks: 345046 time(s)
Russian Federation


(IMG:style_emoticons/default/bye.gif) Wolf Spider - Feniks [ep] (2013)


Thanks:
Go to the top of the page
  Insert nick Quick quote
+Quote Post
post Feb 5 2013, 14:18:35
Post #4

South Of Heaven /адепт ВУДУ
**************
Group: Металариец
Posts: 13,163
Releases: 7
From: Санкт-Петербург
On Forums: 8 years 8 months
Thanks: 4807 time(s)
Russian Federation


В данном случае язык испортил впечатление(
Go to the top of the page
  Insert nick Quick quote
+Quote Post
post Feb 5 2013, 17:51:26
Post #5

_ - = # Thrashogolic # = - _ ... а давайте поржём все вместе
**************
Group: Металариец
Posts: 21,046
Releases: 4444
From: 404
On Forums: 8 years 5 months
Thanks: 27291 time(s)
Ukraine


ЦИТАТА(aesteticvice @ Feb 5 2013, 15:01:17) *
Ну, я при оформлении вбил название -> поиск - нет релиза.
А ссылку, что ты дал - оно в файнде и там ведь тоже транскодищще. (IMG:style_emoticons/default/hmm.gif)
ЦИТАТА(avkruchinin @ 5th February 2013 - 15:18:35) *
В данном случае язык испортил впечатление(
ну, это ты субъективно:
1) ибо он там не везде родной;
2) а для меня польский родственнен с украинским, поэтому не существенно.
Go to the top of the page
  Insert nick Quick quote
+Quote Post
post Feb 6 2013, 20:33:36
Post #6

_ - = # Thrashogolic # = - _ ... а давайте поржём все вместе
**************
Group: Металариец
Posts: 21,046
Releases: 4444
From: 404
On Forums: 8 years 5 months
Thanks: 27291 time(s)
Ukraine


Может кому надо не транскоденное в 128-ми как есть
Register

Go to the top of the page
  Insert nick Quick quote
+Quote Post
post Feb 8 2013, 07:25:39
Post #7

Правь статус, ####!111
**************
Group: Металариец
Posts: 5,246
Releases: 0
From: Primorye.ru
On Forums: 7 years 8 months
Thanks: 1048 time(s)
Russian Federation


Слушаю впервые , польский вокал ваще не портит данный материал . Увидев дивчулю сразу подумал вокалировать будет , а она на барабанах и надо сказать категорически хорошо исполняет !
Go to the top of the page
  Insert nick Quick quote
+Quote Post
post Feb 24 2013, 08:08:15
Post #8

brutalcesar
**************
Group: Металариец
Posts: 17,597
Releases: 67
From: Рязань
On Forums: 9 years 10 months
Thanks: 8902 time(s)
Russian Federation


Мне понравилось (IMG:style_emoticons/default/20.gif)
Go to the top of the page
  Insert nick Quick quote
+Quote Post
post Dec 9 2014, 12:27:46
Post #9

_ - = # Thrashogolic # = - _ ... а давайте поржём все вместе
**************
Group: Металариец
Posts: 21,046
Releases: 4444
From: 404
On Forums: 8 years 5 months
Thanks: 27291 time(s)
Ukraine


Может кому надо не транскоденное в 128-ми как есть
Register


Thanks:
Go to the top of the page
  Insert nick Quick quote
+Quote Post

Reply to this topicStart new topic
1 User(s) are reading this topic (1 Guests and 0 Anonymous Users)
0 Members:

 



- Lo-Fi Version Support form
Copyrights and abuse reports form
Time is now: 12th December 2018 - 05:56:17