Welcome Guest ( Log In | Register )

 
Reply to this topicStart new topic
> Sacrario - Catastrophic Eyes (2008), Thrash Metal
post Feb 16 2013, 17:11:28
Post #1

Serial Uploader
Group Icon
Group: V.I.P
Posts: 37,219
Releases: 35402
From: Lithuania
On Forums: 12 years 1 month
Thanks: 421522 time(s)
Lithuania


(IMG:http://metalarea.org/images/audiocovers/2013_Feb/acov_tid194272_thumb.jpg)

*Artist: Sacrario
*Album: Catastrophic Eyes
*Year: 2008
*Genre: Thrash Metal
*Country: Brazil (IMG:http://metalarea.org/forum/style_images/flags/Brazil.png)
*Format: mp3@CBR320kbps
*Size: 139MB

Tracklist:
01. Catastrophic Eyes 05:41
02. Empire Of Lies 04:23
03. Drug Addiction 04:38
04. The Witness 04:23
05. Wise Words 05:10
06. To Die Is The End 04:53
07. Lethal Step 05:46
08. Wasted Land 04:20
09. Extreme Unction 03:34
10. Into The Dark 05:12
11. Divine Existence 04:02
12. Spiritual Lobotomy 03:06
13. Septicemia 04:34
******************************
Total playing time: 59:42

(IMG:http://metalarea.org/images/myspace.png)

Extended info


(IMG:http://metalarea.org/images/spectrogram/2013_Feb/1d1a91915b5786e3d0f47fea8eae50c6.png)
Input File: 02. Empire Of Lies.mp3
Channels : 2
Sample Rate : 44100
Precision : 16-bit
Duration : 00:04:23.89 = 11637593 samples = 19791.8 CDDA sectors
File Size : 10.6M
Bit Rate : 320k
Sample Encoding: MPEG audio (layer I, II or III)
Comments :
Title=Empire Of Lies
Artist=Sacrario
Album=Catastrophic Eyes
Tracknumber=02
Year=2008
Genre=Death/Thrash Metal



Register


Go to the top of the page
  Insert nick Quick quote
+Quote Post
post Aug 21 2019, 02:24:17
Post #2

Пять Литров
*****
Group: Металариец
Posts: 414
Releases: 0
On Forums: 11 years 9 months
Thanks: 14 time(s)
Russian Federation


The link is dead, can anyone replace it?
Go to the top of the page
  Insert nick Quick quote
+Quote Post
post Aug 21 2019, 14:42:36
Post #3

Правь статус, ####!111
**************
Group: Металариец
Posts: 46,784
Releases: 731
On Forums: 11 years 1 month
Thanks: 39448 time(s)
Russian Federation


@320

Register


Thanks:
Go to the top of the page
  Insert nick Quick quote
+Quote Post

Reply to this topicStart new topic
1 User(s) are reading this topic (1 Guests and 0 Anonymous Users)
0 Members:

 



- Lo-Fi Version Support form
Copyrights and abuse reports form
Time is now: 12th July 2020 - 20:52:03