Welcome Guest ( Log In | Register )

> И неформату есть предел.

Рэп/хип-хоп/шансон/поп удаляются. Для них есть свои порталы.

> Troum & Aidan Baker - Nihtes Niht [collaboration] (2013), Drone | Ambient
post Feb 20 2013, 15:13:04
Post #1

Ǿ
******
Group: Металариец
Posts: 529
Releases: 27
On Forums: 16 years 1 month
Thanks: 1687 time(s)
Russian Federation


(IMG:http://metalarea.org/images/audiocovers/2013_Feb/acov_tid194560_thumb.jpg)

*Artist: Troum & Aidan Baker
*Album: Nihtes Niht [collaboration]
*Year: 2013
*Genre: Drone | Ambient
*Country: Germany (IMG:http://metalarea.org/forum/style_images/flags/Germany.png) | Canada (IMG:http://metalarea.org/forum/style_images/flags/Canada.png)
*Format: mp3@CBR320kbps
*Size: 131MB

Tracklist:
01. Sunt 17:40
02. Nort 15:07
03. Westan 10:27
04. Ostan 14:21
******************************
Total playing time: 57:35



Extended info
A collaboration between Aidan Baker and Troum, recorded live March 2011 at GHUTTO-M studios in Bremen, Germany. Released on CD by www.Alone-At-Last.com.
released 31 January 2013
Aidan Baker - electric guitar
Martin Gitschel - guitars, percussion, effects
Stefan Knappe - guitars, accordion

Рецензия

(IMG:http://metalarea.org/images/spectrogram/2013_Feb/0e4b9398006afe156188fe04e5ac9d89.png)
Input File: 03. Westan.mp3
Channels : 2
Sample Rate : 44100
Precision : 16-bit
Duration : 00:10:26.66 = 27635750 samples = 46999.6 CDDA sectors
File Size : 25.1M
Bit Rate : 320k
Sample Encoding: MPEG audio (layer I, II or III)
Comments :
Title=Westan
Artist=Aidan Baker & Troum
Album=Nihtes Niht
Tracknumber=3
Year=2013
Genre=Experimental



Register


Go to the top of the page
  Insert nick Quick quote
+Quote Post
 
Start new topic
Replies (1 - 5)
post Feb 21 2013, 15:06:40
Post #2

0,5 минералки и шоколадка
**************
Group: Металариец
Posts: 2,817
Releases: 119
From: Karelia
On Forums: 14 years 9 months
Thanks: 4029 time(s)
NATO


(IMG:style_emoticons/default/17.gif) (IMG:style_emoticons/default/5.gif)
срочно заслушать! Срочно же!


Thanks:
(1) Vertigo,
Go to the top of the page
  Insert nick Quick quote
+Quote Post
psychonaut
post Feb 21 2013, 16:08:28
Post #3

Guests team






ЦИТАТА(shial @ Feb 21 2013, 17:06:40) *
(IMG:style_emoticons/default/17.gif) (IMG:style_emoticons/default/5.gif)
срочно заслушать! Срочно же!


заслушаем (IMG:style_emoticons/default/smile3.gif)
Go to the top of the page
  Insert nick Quick quote
+Quote Post
post Feb 21 2013, 16:14:07
Post #4

Правь статус, ####!111
**************
Group: Металариец
Posts: 55,414
Releases: 1157
On Forums: 14 years 8 months
Thanks: 53784 time(s)
Russian Federation


Вот Надькин муж конвеер то запустил. Мало того что Надежда постоянно рожает, так еще и сам батяня подвязался сперморазбрызгивателем на других баб работать!


Thanks:
Go to the top of the page
  Insert nick Quick quote
+Quote Post
post Feb 23 2013, 11:49:42
Post #5

Шесть Литров
******
Group: Металариец
Posts: 653
Releases: 7
From: Tambovskaya obl,Rasskazovo city
On Forums: 16 years 10 months
Thanks: 422 time(s)
Russian Federation


эксперименты с НЧ дронами дико порадовали!
Go to the top of the page
  Insert nick Quick quote
+Quote Post
post Apr 5 2013, 11:34:45
Post #6

любитель шведской buzzzzy'ны
**************
Group: Металариец
Posts: 7,263
Releases: 350
From: На берегах Оки и Волги одновремеННо
On Forums: 17 years 2 months
Thanks: 23803 time(s)
Russian Federation


ЦИТАТА(vosmidesijatye @ 21st February 2013 - 19:14:07) *
Вот Надькин муж конвеер то запустил. Мало того что Надежда постоянно рожает, так еще и сам батяня подвязался сперморазбрызгивателем на других баб работать!


Это у них не первая совместная работа, да и так-то Troum слушались намного интереснее (впрочем как и всегда) на их совместном концерте с Nadja год назад, по большому то счёту.
Go to the top of the page
  Insert nick Quick quote
+Quote Post

Reply to this topicStart new topic
2 User(s) are reading this topic (2 Guests and 0 Anonymous Users)
0 Members:

 



- Lo-Fi Version Support form
Copyrights and abuse reports form
Time is now: 24th February 2024 - 11:16:25