Welcome Guest ( Log In | Register )

> Inoculation - Elysium [ep] (2013), Old School Technical Death Metal
post Feb 27 2013, 09:02:11
Post #1

Аннигилятор пивА
Group Icon
Group: V.I.P
Posts: 52,360
Releases: 16550
From: Koenigsberg - TILZIT
On Forums: 15 years 2 months
Thanks: 367943 time(s)
Russian Federation


(IMG:http://metalarea.org/images/audiocovers/2013_Feb/acov_tid195046_thumb.gif)

*Artist: Inoculation
*Album: Elysium [ep]
*Year: 2013
*Genre: Old School Technical Death Metal
*Country: United States (IMG:http://metalarea.org/forum/style_images/flags/United%20States.png)
*Format: mp3@CBR320kbps
*Size: 48MB

Tracklist:
1. 022542 03:28
2. Immaculate Inverse Dispoilment 03:43
3. Kepler 22-B 01:35
4. Shores of the Cosmic Ocean 03:29
5. Evocation of Malevolent Spirits 03:21
6. Pyramids of Elysium 04:18
******************************
Total playing time: 19:54



Extended info
Influence: Death, Gorod, Atheist, Obscura, Decapitated, Gorguts, Origin, Dream Theater/LTE, Pestilence, Decrepit Birth, Cattle Decapitation, Visceral Disgorge, Severed Savior, Cynic/Exivious, Morbid Angel, Incantation, Carcass, Warbringer, Dying Fetus, Entombed, Necrophagist, Wu-Tang clan...

Guitar - Anthony Allen
Bass - Dave Kirsch
Drums - Matt Behner
Vocals - Brandon Robinson

(IMG:http://metalarea.org/images/spectrogram/2013_Feb/0df8e163140fe7dd0b1c6d43988ae764.png)
Input File: 04. Shores of the Cosmic Ocean.mp3
Channels : 2
Sample Rate : 44100
Precision : 16-bit
Duration : 00:03:41.75 = 9779219 samples = 16631.3 CDDA sectors
File Size : 8.87M
Bit Rate : 320k
Sample Encoding: MPEG audio (layer I, II or III)
Comments :
Title=Shores of the Cosmic Ocean
Artist=Inoculation
Album=Elysium
Tracknumber=4
Year=2013
Genre=Technical Death Metal



Register


Go to the top of the page
  Insert nick Quick quote
+Quote Post
 
Start new topic
Replies (1 - 7)
post Feb 27 2013, 11:51:03
Post #2

Наливай!
**************
Group: Металариец
Posts: 6,024
Releases: 27
From: Москва-Бибирево
On Forums: 13 years 4 months
Thanks: 3120 time(s)
Russian Federation


Динозавры пиз**т космонавтов (IMG:style_emoticons/default/15.gif)


Thanks:
Go to the top of the page
  Insert nick Quick quote
+Quote Post
post Feb 28 2013, 11:03:12
Post #3

Crush! Kill! Destroy!
**************
Group: Металариец
Posts: 5,686
Releases: 15
From: Kaliningrad
On Forums: 13 years 8 months
Thanks: 5406 time(s)
Russian Federation


Отлично!
Go to the top of the page
  Insert nick Quick quote
+Quote Post
post Feb 28 2013, 11:48:36
Post #4

Семь Литров
*******
Group: Металариец
Posts: 729
Releases: 47
On Forums: 10 years 5 months
Thanks: 829 time(s)
Ukraine


Просто супер!-качать всем фанатам стиля!


Go to the top of the page
  Insert nick Quick quote
+Quote Post
post Nov 14 2013, 12:29:28
Post #5

Schuldinerist
**************
Group: Металариец
Posts: 10,961
Releases: 34
From:
On Forums: 14 years 3 months
Thanks: 7226 time(s)
Russian Federation


Фанаты стиля не восхищены
7-8/10
Go to the top of the page
  Insert nick Quick quote
+Quote Post
post Sep 19 2020, 18:19:04
Post #6

Три Литра
***
Group: Завсегдатай
Posts: 224
Releases: 0
On Forums: 3 years 2 weeks
Thanks: 15 time(s)
Poland


Please reupload
Go to the top of the page
  Insert nick Quick quote
+Quote Post
post Sep 19 2020, 18:22:31
Post #7

Добрый
**************
Group: Металариец
Posts: 5,027
Releases: 0
On Forums: 3 years 4 weeks
Thanks: 12732 time(s)
Russian Federation


48 mb/320 kbps
Register


Thanks:
Go to the top of the page
  Insert nick Quick quote
+Quote Post
post Sep 22 2020, 05:47:36
Post #8

Добрый
**************
Group: Металариец
Posts: 5,027
Releases: 0
On Forums: 3 years 4 weeks
Thanks: 12732 time(s)
Russian Federation


48 mb/320 kbps
Register


Thanks:
Go to the top of the page
  Insert nick Quick quote
+Quote Post

Reply to this topicStart new topic
2 User(s) are reading this topic (2 Guests and 0 Anonymous Users)
0 Members:

 



- Lo-Fi Version Support form
Copyrights and abuse reports form
Time is now: 31st July 2021 - 09:09:09