Welcome Guest ( Log In | Register )

Объявления

* gmail.com упорно продолжает считать почту с нас "unsolicited" и отбивает в том числе и письма активации, поэтому просьба использовать альтернативные почтовые ящики.
------------
* gmail.com continues reject all mail from us as "unsolicited" (activation mails too) therefore please use alternate mail servers.
> Sanctum - Demo '86 [demo] (1986), Speed/Thrash Metal (D9)
post Mar 1 2013, 14:18:20
Post #1

Подвал
**************
Group: Металариец
Posts: 20,393
Releases: 11711
From: Far East (Khabarovsk)
On Forums: 15 years 4 months
Thanks: 139135 time(s)
Russian Federation


(IMG:http://metalarea.org/images/audiocovers/2013_Mar/acov_tid195235_thumb.jpg)

*Artist: Sanctum
*Album: Demo '86 [demo]
*Year: 1986
*Genre: Speed/Thrash Metal
*Country: United States (IMG:http://metalarea.org/forum/style_images/flags/United%20States.png)
*Format: mp3@CBR320kbps
*Size: 25MB

Tracklist:
1. Line Of Fire 03:13
2. Nothing Left 04:22
3. Forgotten In Time 04:26
******************************
Total playing time: 12:01

Extended info
The song "Nothing Left" was featured on the 1987 Metal Massacre VIII compilation from Metal Blade Records.

(IMG:http://metalarea.org/images/spectrogram/2013_Mar/cb59863b1f89318ee2c0f37f63e93fba.png)
Input File: 01-Line of Fire.mp3
Channels : 2
Sample Rate : 44100
Precision : 16-bit
Duration : 00:03:13.18 = 8519150 samples = 14488.4 CDDA sectors
File Size : 7.73M
Bit Rate : 320k
Sample Encoding: MPEG audio (layer I, II or III)
Comments :
Title=Line of Fire
Artist=Sanctum (US-CA)
Album=Demo 1986
Tracknumber=1
Year=1986
Genre=Thrash Metal



Register


Go to the top of the page
  Insert nick Quick quote
+Quote Post
 
Start new topic
Replies (1 - 2)
post Sep 1 2014, 06:00:21
Post #2

Четыре Литра
****
Group: Металариец
Posts: 334
Releases: 0
On Forums: 14 years 9 months
Thanks: 21 time(s)
Croatia


please re-up this
Go to the top of the page
  Insert nick Quick quote
+Quote Post
post Sep 20 2014, 15:54:55
Post #3

Четыре Литра
****
Group: Металариец
Posts: 359
Releases: 203
From: Moskow Katakombs
On Forums: 16 years 7 months
Thanks: 1789 time(s)
Russian Federation


re-up

Register


Go to the top of the page
  Insert nick Quick quote
+Quote Post

Reply to this topicStart new topic
2 User(s) are reading this topic (2 Guests and 0 Anonymous Users)
0 Members:

 



- Lo-Fi Version Support form
Copyrights and abuse reports form
Time is now: 27th May 2024 - 22:56:28