Welcome Guest ( Log In | Register )

Объявления

* gmail.com упорно продолжает считать почту с нас "unsolicited" и отбивает в том числе и письма активации, поэтому просьба использовать альтернативные почтовые ящики.
------------
* gmail.com continues reject all mail from us as "unsolicited" (activation mails too) therefore please use alternate mail servers.
> Hela - Broken Cross (2013), Stoner/Doom Metal
post Apr 5 2013, 18:30:17
Post #1

Serial Uploader
Group Icon
Group: V.I.P
Posts: 42,944
Releases: 41005
From: Lithuania
On Forums: 16 years 1 month
Thanks: 527003 time(s)
Lithuania


(IMG:http://metalarea.org/images/audiocovers/2013_Apr/acov_tid197938_thumb.jpg)

*Artist: Hela
*Album: Broken Cross
*Year: 2013
*Genre: Stoner/Doom Metal
*Country: Spain (IMG:http://metalarea.org/forum/style_images/flags/Spain.png)
*Format: mp3@CBR320kbps
*Size: 106MB

Tracklist:
01. Horns Of God 10:07
02. The Wicked King 04:57
03. Slave Of The Witch 05:48
04. March Of The Minotaurs 08:28
05. Black Eagle 05:45
06. Flesh Ceremony 11:23
******************************
Total playing time: 46:28



Extended info


(IMG:http://metalarea.org/images/spectrogram/2013_Apr/c65ff974dda3c6f31422373a65b07de2.png)
Input File: 02. The Wicked King.mp3
Channels : 2
Sample Rate : 44100
Precision : 16-bit
Duration : 00:04:57.44 = 13116884 samples = 22307.6 CDDA sectors
File Size : 11.9M
Bit Rate : 320k
Sample Encoding: MPEG audio (layer I, II or III)
Comments :
Title=The Wicked King
Artist=Hela
Album=Broken Cross
Tracknumber=2/6
Year=2013



Register


Go to the top of the page
  Insert nick Quick quote
+Quote Post
 
Start new topic
Replies (1 - 9)
post Apr 6 2013, 05:36:24
Post #2

Up From The Grave
*********
Group: Металариец
Posts: 961
Releases: 126
From: Minsk
On Forums: 15 years 1 day
Thanks: 2576 time(s)
Belarus




Thanks:
Go to the top of the page
  Insert nick Quick quote
+Quote Post
post Apr 8 2013, 08:34:53
Post #3

Маньяк
**********
Group: Металариец
Posts: 1,121
Releases: 4
From: Харьков
On Forums: 15 years 10 months
Thanks: 416 time(s)
Ukraine


Женский вокал в данном стиле неуместен, ИМХО. Точка (IMG:style_emoticons/default/smile2.gif)


Thanks:
Go to the top of the page
  Insert nick Quick quote
+Quote Post
post Apr 16 2013, 14:11:50
Post #4

Vana Peerukott
**************
Group: Металариец
Posts: 3,115
Releases: 239
From: Київ, Україна
On Forums: 18 years 3 months
Thanks: 3126 time(s)
Ukraine


неплохо. переслушаю
Go to the top of the page
  Insert nick Quick quote
+Quote Post
post Apr 16 2013, 15:15:37
Post #5

####!111
**************
Group: Металариец
Posts: 4,785
Releases: 147
From: The Mountain Of DOOM
On Forums: 16 years 9 months
Thanks: 7054 time(s)
Russian Federation


Послушал выборочно Bandcamp. По музыке всё довольно стандартно, да и вокал конкуренцию Jex Thoth не делает...
Go to the top of the page
  Insert nick Quick quote
+Quote Post
post Apr 23 2013, 19:37:40
Post #6

Правь статус, ####!111
**************
Group: Металариец
Posts: 56,266
Releases: 1224
On Forums: 15 years 1 month
Thanks: 55305 time(s)
Russian Federation


Отменный альбом. Прокуренный и травяной релиз с прекрасным женским ( в первом трэке подумал, что мужским ) вокалом. Сделано все качественно, грамотно. Продолжительность оптимальная, мелодии и вокал слиты воедино, не надоедают. Сделано все грамотно, качественно и интересно.

Поклонникам стиля - не проходить мимо!


Thanks:
Go to the top of the page
  Insert nick Quick quote
+Quote Post
post Jun 25 2013, 13:51:34
Post #7

Семь Литров
*******
Group: Металариец
Posts: 709
Releases: 1
From: Россия, Санкт-Петербург
On Forums: 16 years 1 month
Thanks: 99 time(s)
Russian Federation


Альбом действительно очень интересный и женский вокал вполне к месту. После нескольких прослушиваний проникаешься пластинкой. Твёрдая 4.
Go to the top of the page
  Insert nick Quick quote
+Quote Post
post Feb 12 2015, 12:27:15
Post #8

Stultus Anethum Siccum.
*******
Group: Металариец
Posts: 712
Releases: 0
On Forums: 15 years 5 months
Thanks: 96 time(s)
Unknown


Норм штукенция.Это вокалистка на обложке?
Go to the top of the page
  Insert nick Quick quote
+Quote Post
post Jan 9 2019, 22:29:50
Post #9

Going home. Flying high.
**************
Group: Металариец
Posts: 13,612
Releases: 0
From: The Land of Shadows
On Forums: 17 years 11 months
Thanks: 33053 time(s)
Russian Federation


from web
Register
Go to the top of the page
  Insert nick Quick quote
+Quote Post
post Feb 1 2020, 14:45:05
Post #10

Шесть Литров
******
Group: Металариец
Posts: 521
Releases: 0
From: Мурманск
On Forums: 14 years 3 months
Thanks: 708 time(s)
Russian Federation


from web
Register


Thanks:
(1) KVRT,
Go to the top of the page
  Insert nick Quick quote
+Quote Post

Reply to this topicStart new topic
1 User(s) are reading this topic (1 Guests and 0 Anonymous Users)
0 Members:

 



- Lo-Fi Version Support form
Copyrights and abuse reports form
Time is now: 16th July 2024 - 07:10:23