Welcome Guest ( Log In | Register )

Объявления

* gmail.com упорно продолжает считать почту с нас "unsolicited" и отбивает в том числе и письма активации, поэтому просьба использовать альтернативные почтовые ящики.
------------
* gmail.com continues reject all mail from us as "unsolicited" (activation mails too) therefore please use alternate mail servers.
> Goatmoon - Tahdon Riemuvoitto [ep] (2013), Black Metal
post Apr 16 2013, 17:16:42
Post #1

+++++++++++
**********
Group: Металариец
Posts: 1,398
Releases: 90
From: Санкт-Петербург
On Forums: 17 years 5 months
Thanks: 3134 time(s)
Russian Federation


(IMG:http://metalarea.org/images/audiocovers/2013_Apr/acov_tid198856_thumb.jpg)

*Artist: Goatmoon
*Album: Tahdon Riemuvoitto [ep]
*Year: 2013
*Genre: Black Metal
*Country: Finland (IMG:http://metalarea.org/forum/style_images/flags/Finland.png)
*Format: mp3@CBR320kbps
*Size: 70MB

Tracklist:
1. Abomination of Winter 04:40
2. Storming through White Light 04:17
3. ...And tears of our Fatherland Fell 02:53
4. Race of the Heroes 06:04
5. For our Blood and Native Soil 05:14
6. Aryan Beauty 04:58
7. From the Barbaric Shores 03:03
******************************
Total playing time: 31:09

Extended info
Werewolf Records 2013


Technical info
(IMG:http://metalarea.org/images/spectrogram/2013_Apr/e18e0693e55208aee98c3ac04fccbba0.png)
Input File: 02 - Storming Through White Light.mp3
Channels : 2
Sample Rate : 44100
Precision : 16-bit
Duration : 00:04:17.54 = 11357602 samples = 19315.6 CDDA sectors
File Size : 10.3M
Bit Rate : 320k
Sample Encoding: MPEG audio (layer I, II or III)
Comments :
Title=Storming Through White Light
Artist=Goatmoon
Album=Tahdon Riemuvoitto
Tracknumber=02/07
Year=2013
Genre=Black Metal



Register


This post has been edited by Persian Gorgrinder: Sep 13 2019, 04:44:52


Go to the top of the page
  Insert nick Quick quote
+Quote Post
 
Start new topic
Replies (1 - 27)
post Apr 16 2013, 20:22:08
Post #2

Шесть Литров
******
Group: Металариец
Posts: 592
Releases: 27
From: Киев
On Forums: 13 years 8 months
Thanks: 3647 time(s)
Ukraine


и ни одного коммента
(IMG:style_emoticons/default/smile2.gif)

сабж крут


Thanks:
Go to the top of the page
  Insert nick Quick quote
+Quote Post
Kub
post Apr 16 2013, 20:35:09
Post #3

Guests team






такой готмун меня не прёт. просто другая музыка. фолк особенно. (IMG:style_emoticons/default/nyyy.gif)
Go to the top of the page
  Insert nick Quick quote
+Quote Post
post Apr 16 2013, 20:44:30
Post #4

Маньяк
**********
Group: Металариец
Posts: 1,428
Releases: 1
From: Беларусь
On Forums: 16 years 5 months
Thanks: 643 time(s)
Russian Federation


Не особо слежу за его дискографией, тут часть альбома - акустические версии старых вещей, но вроде и пару новых есть - в фирменном блэковом ключе. Сабж крут, согласен. Если бы ещё чистый вокал добавить, как у Русского стяга, например, или Ян Петера пригласить - было бы вообще отлично! Storming through the white light просто Русский Стяг напомнила чем-то.
Go to the top of the page
  Insert nick Quick quote
+Quote Post
post Apr 16 2013, 22:14:47
Post #5

Литр
*
Group: Подсевший
Posts: 74
Releases: 0
On Forums: 15 years 1 month
Thanks: 15 time(s)
Russian Federation


это типа ХААтмуновская акустика значит? просто Storming Through White Light уже и на епишке и на альбоме была
Go to the top of the page
  Insert nick Quick quote
+Quote Post
post Apr 17 2013, 09:10:52
Post #6

Trickster
Group Icon
Group: V.I.P
Posts: 6,566
Releases: 322
On Forums: 13 years 4 months
Thanks: 15272 time(s)
Russian Federation


Очень понравилось, как звучит в акустике Abomination of Winter
Go to the top of the page
  Insert nick Quick quote
+Quote Post
post Apr 17 2013, 09:24:24
Post #7

Necromancer
Group Icon
Group: Curation team
Posts: 11,046
Releases: 271
From: Зеленоград
On Forums: 17 years 8 months
Thanks: 8969 time(s)
Russian Federation


В принципе, хороший альбом. Хотя, я ожидал услышать злобную чернуху... Увы, её на альбоме нет.
Go to the top of the page
  Insert nick Quick quote
+Quote Post
post Apr 17 2013, 10:31:48
Post #8

Четыре Литра
****
Group: Металариец
Posts: 314
Releases: 20
From: Михайловск
On Forums: 14 years 4 months
Thanks: 536 time(s)
Russian Federation


а как же пятый и шестой треки? типичный гоатмун же там, металический!
Go to the top of the page
  Insert nick Quick quote
+Quote Post
post Apr 17 2013, 10:53:54
Post #9

Total Death
***********
Group: Металариец
Posts: 1,607
Releases: 75
On Forums: 15 years 1 week
Thanks: 2278 time(s)
Unknown


Мне одному кажется что на облоге изображены русские богатыри/витязи? (IMG:style_emoticons/default/crazy.gif)
Go to the top of the page
  Insert nick Quick quote
+Quote Post
post Apr 17 2013, 11:03:42
Post #10

Necromancer
Group Icon
Group: Curation team
Posts: 11,046
Releases: 271
From: Зеленоград
On Forums: 17 years 8 months
Thanks: 8969 time(s)
Russian Federation


ЦИТАТА(Necrodictator @ Apr 17 2013, 12:53:54) *
Мне одному кажется что на облоге изображены русские богатыри/витязи? (IMG:style_emoticons/default/crazy.gif)

Да, есть такое дело, но вряд ли это богатыри/витязи... Скорее всего это какие-нибудь иные могучие мужи.
Go to the top of the page
  Insert nick Quick quote
+Quote Post
post Apr 17 2013, 11:16:05
Post #11

Правь статус, ####!111
**************
Group: Металариец
Posts: 2,299
Releases: 1011
From: Гиперборе́я
On Forums: 13 years 7 months
Thanks: 22156 time(s)
Russian Federation


Классный релиз,Спасибо Ainar
Go to the top of the page
  Insert nick Quick quote
+Quote Post
post Apr 17 2013, 14:05:45
Post #12

Два Литра
**
Group: Завсегдатай
Posts: 101
Releases: 0
From: Черновцы
On Forums: 15 years 4 months
Thanks: 28 time(s)
Ukraine


ЦИТАТА(Necrodictator @ Apr 17 2013, 12:53:54) *
Мне одному кажется что на облоге изображены русские богатыри/витязи? (IMG:style_emoticons/default/crazy.gif)

ага, а ещё красная звезда, хоть и перевёрнутая (IMG:style_emoticons/default/crazy.gif)


Thanks:
Go to the top of the page
  Insert nick Quick quote
+Quote Post
post Apr 17 2013, 17:57:39
Post #13

..ще до загибелі
**********
Group: Металариец
Posts: 1,170
Releases: 0
From: Мати Руських Міст
On Forums: 13 years 3 months
Thanks: 1013 time(s)
Ukraine


ЦИТАТА(Fess @ Apr 17 2013, 13:03:42) *
Да, есть такое дело, но вряд ли это богатыри/витязи... Скорее всего это какие-нибудь иные могучие мужи.

саамычи, например (IMG:style_emoticons/default/1488.gif)
Go to the top of the page
  Insert nick Quick quote
+Quote Post
post Apr 17 2013, 18:05:42
Post #14

Total Death
***********
Group: Металариец
Posts: 1,607
Releases: 75
On Forums: 15 years 1 week
Thanks: 2278 time(s)
Unknown


ЦИТАТА(SSBandera @ Apr 17 2013, 19:57:39) *
саамычи, например (IMG:style_emoticons/default/1488.gif)


Финны саамов за унтеров считают, особенно всякие зиганы (IMG:style_emoticons/default/25.gif)
Go to the top of the page
  Insert nick Quick quote
+Quote Post
post Apr 17 2013, 18:44:07
Post #15

..ще до загибелі
**********
Group: Металариец
Posts: 1,170
Releases: 0
From: Мати Руських Міст
On Forums: 13 years 3 months
Thanks: 1013 time(s)
Ukraine


ЦИТАТА(Necrodictator @ Apr 17 2013, 20:05:42) *
Финны саамов за унтеров считают, особенно всякие зиганы (IMG:style_emoticons/default/25.gif)


отож бо! хотя если присмотреться к щикарным бровям богатырей/витязей, то узнаются нуностощие рахвира-джигиты!
Go to the top of the page
  Insert nick Quick quote
+Quote Post
post Apr 18 2013, 09:06:30
Post #16

Правь статус, ####!111
**************
Group: Металариец
Posts: 4,292
Releases: 1
From: Рейх
On Forums: 17 years 9 months
Thanks: 1064 time(s)
Ukraine


Отличный материал. Приятно послушать старые песни на фолк манеру, даже и не думал, что так круто будет звучать, не то что наш россиянский фолк. Вторая часть намного порадовала больше, т.к. новый песни при глубокой атмосферной составляющей слушаются превосходно.
Go to the top of the page
  Insert nick Quick quote
+Quote Post
post Apr 19 2013, 08:48:51
Post #17

YGG
***********
Group: Металариец
Posts: 1,764
Releases: 33
From: Харьков
On Forums: 17 years 2 months
Thanks: 3147 time(s)
Ukraine


Очень хорошо,очень!!!
Go to the top of the page
  Insert nick Quick quote
+Quote Post
post May 27 2013, 01:06:26
Post #18

Маньяк
**********
Group: Металариец
Posts: 1,414
Releases: 0
From: Рівне
On Forums: 15 years 3 months
Thanks: 165 time(s)
Ukraine


Go to the top of the page
  Insert nick Quick quote
+Quote Post
post May 29 2013, 07:23:33
Post #19

Два Литра
**
Group: Завсегдатай
Posts: 182
Releases: 0
On Forums: 16 years 7 months
Thanks: 63 time(s)
Ukraine


Отлично, отлично. Спасибо, Ainar.
Go to the top of the page
  Insert nick Quick quote
+Quote Post
post May 30 2013, 15:18:40
Post #20

Все люди - черви.
**********
Group: Металариец
Posts: 1,232
Releases: 159
From: Пхёнъян, Северная Корея
On Forums: 11 years 5 months
Thanks: 5054 time(s)
North Korea


Отличная компиляха. Акустические треки дико радуют слух (IMG:style_emoticons/default/pray.gif)
Go to the top of the page
  Insert nick Quick quote
+Quote Post
post May 31 2013, 12:17:33
Post #21

Маньяк
**********
Group: Металариец
Posts: 1,136
Releases: 18
On Forums: 15 years 5 months
Thanks: 2141 time(s)
Ukraine


Автор обложки - Билибин.


Thanks:
Go to the top of the page
  Insert nick Quick quote
+Quote Post
post Jul 15 2013, 00:09:15
Post #22

Правь статус, ####!111
**************
Group: Металариец
Posts: 56,140
Releases: 1212
On Forums: 15 years 2 weeks
Thanks: 55084 time(s)
Russian Federation


320 (Rip+Scans)

Register


Lossless

Register


Go to the top of the page
  Insert nick Quick quote
+Quote Post
post Oct 18 2013, 08:00:43
Post #23

Литр
*
Group: Подсевший
Posts: 60
Releases: 0
On Forums: 10 years 8 months
Thanks: 28 time(s)
Russian Federation


Замечательная компиляшка, ценность которой, лично для меня, не меньше номерных альбомов Гоатмуна. Эпические фолковые переложения старых песен+пара блэковых номеров в традиционном для банды ключе - что еще надо, чтобы скоротать ожидание нового альбома.


Thanks:
(1) Goatrex,
Go to the top of the page
  Insert nick Quick quote
+Quote Post
post Dec 28 2013, 14:52:03
Post #24

Маньяк
**********
Group: Металариец
Posts: 1,136
Releases: 18
On Forums: 15 years 5 months
Thanks: 2141 time(s)
Ukraine


(IMG:http://metalarea.org/images/audiocovers/2013_Dec/acov_tid215547_thumb.jpg)

*Artist: Goatmoon
*Album: Tahdon Riemuvoitto (7" vinyl (33⅓ RPM)) [ep]
*Year: 2013
*Genre: Black Metal
*Country: Finland (IMG:http://metalarea.org/forum/style_images/flags/Finland.png)
*Format: mp3@CBR320kbps
*Size: 23MB

Tracklist:
1. For Our Blood And Native Soil
2. Aryan Beauty
******************************
Total playing time: 10:04

(IMG:http://metalarea.org/images/youtube.png)

Technical info
(IMG:http://metalarea.org/images/spectrogram/2013_Dec/50498d316bca3cc621e2141e0e34cafc.png)
Input File: 01 - For Our Blood And Native Soil.mp3
Channels : 2
Sample Rate : 44100
Precision : 16-bit
Duration : 00:05:09.90 = 13666414 samples = 23242.2 CDDA sectors
File Size : 12.4M
Bit Rate : 320k
Sample Encoding: MPEG audio (layer I, II or III)
Comments :
Title=For Our Blood And Native Soil
Artist=Goatmoon
Album=Tahdon Riemuvoitto 7"
Tracknumber=1
Year=2013
Genre=Black Metal



Register


Go to the top of the page
  Insert nick Quick quote
+Quote Post
post Dec 28 2013, 15:03:59
Post #25

the faceless one
Group Icon
Group: S-moderation team
Posts: 9,607
Releases: 1979
On Forums: 15 years 10 months
Thanks: 124403 time(s)
Antarctica


для тех,кто не в ладах со службами яндекса,держите ссылку на ипапку
Register



Go to the top of the page
  Insert nick Quick quote
+Quote Post
post Dec 28 2013, 16:59:43
Post #26

Правь статус, ####!111
**************
Group: Металариец
Posts: 2,976
Releases: 423
On Forums: 16 years 6 months
Thanks: 14997 time(s)
Germany


Full album in 320 kbps + scans
Register


Thanks:
Go to the top of the page
  Insert nick Quick quote
+Quote Post
post Dec 28 2013, 17:11:06
Post #27

the faceless one
Group Icon
Group: S-moderation team
Posts: 9,607
Releases: 1979
On Forums: 15 years 10 months
Thanks: 124403 time(s)
Antarctica


ЦИТАТА(urdung @ Dec 28 2013, 19:59:43) *
Full album in 320 kbps + scans

Давно есть тут:
Goatmoon - Tahdon Riemuvoitto [best of/compilation] (2013)

UlvhedinGrom выложил именно миник, рип с винила, а не треки с указанной постом выше компиляции.


Go to the top of the page
  Insert nick Quick quote
+Quote Post
post Nov 17 2014, 08:16:50
Post #28

Правь статус, ####!111
**************
Group: Металариец
Posts: 2,976
Releases: 423
On Forums: 16 years 6 months
Thanks: 14997 time(s)
Germany


320 kbps + scans
Register
Go to the top of the page
  Insert nick Quick quote
+Quote Post

Reply to this topicStart new topic
1 User(s) are reading this topic (1 Guests and 0 Anonymous Users)
0 Members:

 



- Lo-Fi Version Support form
Copyrights and abuse reports form
Time is now: 17th June 2024 - 08:11:56