Welcome Guest ( Log In | Register )

> Cangaço - Rastros (2013), Death/Folk Metal (D4)
post May 8 2013, 22:56:59
Post #1

Serial Uploader
Group Icon
Group: V.I.P
Posts: 41,342
Releases: 39426
From: Lithuania
On Forums: 15 years 5 months
Thanks: 501765 time(s)
Lithuania


(IMG:http://metalarea.org/images/audiocovers/2013_May/acov_tid200530_thumb.jpg)

*Artist: Cangaço
*Album: Rastros
*Year: 2013
*Genre: Death/Folk Metal
*Country: Brazil (IMG:http://metalarea.org/forum/style_images/flags/Brazil.png)
*Format: mp3@CBR320kbps
*Size: 118MB

Tracklist:
01. Atrito 01:24
02. Cantar às Excelências Das Armas Brancas 04:05
03. Arcabuzado 04:45
04. Bombardeio No Ceará 04:30
05. Encarnação 04:27
06. Mental 06:08
07. Statu Variabilis 05:27
08. Corpus Alienum 06:30
09. Devices Of Astral 07:08
******************************
Total playing time: 44:24

(IMG:http://metalarea.org/images/myspace.png)

Technical info
(IMG:http://metalarea.org/images/spectrogram/2013_May/1775b2b533565be799c98fe4ef167d02.png)
Input File: 04 - Bombardeio no Cear?.mp3
Channels : 2
Sample Rate : 44100
Precision : 16-bit
Duration : 00:04:30.97 = 11949777 samples = 20322.8 CDDA sectors
File Size : 13.6M
Bit Rate : 400k
Sample Encoding: MPEG audio (layer I, II or III)
Comments :
Title=Bombardeio no CearГЎ
Artist=Cangaço
Album=Rastros
Tracknumber=4/9
Year=2013
Genre=Brazilian Metal
Discnumber=1



Register


Go to the top of the page
  Insert nick Quick quote
+Quote Post
 
Start new topic
Replies (1 - 5)
post May 9 2013, 03:14:06
Post #2

Up From The Grave
*********
Group: Металариец
Posts: 945
Releases: 125
From: Minsk
On Forums: 14 years 4 months
Thanks: 2542 time(s)
Belarus




Thanks:
Go to the top of the page
  Insert nick Quick quote
+Quote Post
post May 9 2013, 04:34:13
Post #3

Социопат.Маргинал. Мизантроп.Нигилист. Перверзный нарциссист.
**************
Group: Металариец
Posts: 5,571
Releases: 666
From: Город-герой Ленинград
On Forums: 12 years 9 months
Thanks: 6544 time(s)
Russian Federation


....фолк в стихах чтоль? (IMG:style_emoticons/default/1488.gif)
Go to the top of the page
  Insert nick Quick quote
+Quote Post
post May 9 2013, 06:57:26
Post #4

hearer & reader
**************
Group: Металариец
Posts: 10,781
Releases: 230
From: Moscow
On Forums: 16 years 2 months
Thanks: 13431 time(s)
Russian Federation


Какой-то икстрим авангард прог. Без скрипучего вокала на испанском впереди можно было попробовать послушать..

This post has been edited by AHBAnep: Jul 1 2015, 08:20:08
Go to the top of the page
  Insert nick Quick quote
+Quote Post
post May 9 2013, 07:13:59
Post #5

El Kulto, la Bestia y la Muerte
*********
Group: Металариец
Posts: 940
Releases: 119
From: Cursed Land
On Forums: 13 years 2 months
Thanks: 2902 time(s)
Unknown


Я в восторге. Это, конечно, не авантпрог, лол, но всё равно здорово.
И да, вокал на португальском. (IMG:style_emoticons/default/genius.gif)
Go to the top of the page
  Insert nick Quick quote
+Quote Post
post Apr 28 2020, 13:06:37
Post #6

практики шума одухотворяющего
**************
Group: Металариец
Posts: 3,931
Releases: 148
From: хроник дисмембера
On Forums: 5 years 10 months
Thanks: 6616 time(s)
Russian Federation


320 mega
Register


Go to the top of the page
  Insert nick Quick quote
+Quote Post

Reply to this topicStart new topic
1 User(s) are reading this topic (1 Guests and 0 Anonymous Users)
0 Members:

 



- Lo-Fi Version Support form
Copyrights and abuse reports form
Time is now: 30th November 2023 - 09:28:37