Welcome Guest ( Log In | Register )

> Lebensnacht - Luonnon Voima (2013), Black Metal
post May 15 2013, 16:18:25
Post #1

Serial Uploader
Group Icon
Group: V.I.P
Posts: 37,570
Releases: 35742
From: Lithuania
On Forums: 12 years 11 months
Thanks: 432090 time(s)
Lithuania


(IMG:http://metalarea.org/images/audiocovers/2013_May/acov_tid201076_thumb.jpg)

*Artist: Lebensnacht
*Album: Luonnon Voima
*Year: 2013
*Genre: Black Metal
*Country: Germany (IMG:http://metalarea.org/forum/style_images/flags/Germany.png)
*Format: mp3@CBR320kbps
*Size: 143MB

Tracklist:
01. Als Der Mensch Das Leid Erfand 02:29
02. Innenleben In Winternacht 06:27
03. Kalter Tod 04:50
04. Luonnon Voima 03:35
05. Sommernachtsgedanken 10:12
06. Welt In Flammen 05:54
07. Und Was Bleibt Ist Die Natur 13:43
08. OH (Bonus Track) 00:33
******************************
Total playing time: 47:43



Extended info

(IMG:http://metalarea.org/images/spectrogram/2013_May/b4cd3932d27b257afa4f866d3b6a2490.png)
Input File: 05. Sommernachtsgedanken.mp3
Channels : 2
Sample Rate : 44100
Precision : 16-bit
Duration : 00:10:12.16 = 26996168 samples = 45911.9 CDDA sectors
File Size : 24.7M
Bit Rate : 323k
Sample Encoding: MPEG audio (layer I, II or III)
Comments :
Title=Sommernachtsgedanken
Artist=Lebensnacht
Album=Luonnon Voima (NP042)
Tracknumber=5
Year=2013



Register


Go to the top of the page
  Insert nick Quick quote
+Quote Post
 
Start new topic
Replies (1 - 4)
post Dec 19 2014, 22:12:00
Post #2

Правь статус, ####!111
**************
Group: Металариец
Posts: 9,240
Releases: 0
From: Москва
On Forums: 11 years 9 months
Thanks: 16752 time(s)
Russian Federation


Перезалейте плз на яндекс
Go to the top of the page
  Insert nick Quick quote
+Quote Post
post Feb 19 2016, 08:06:40
Post #3

Правь статус, ####!111
**************
Group: Металариец
Posts: 2,793
Releases: 18
From: Eternal darkness
On Forums: 13 years 6 months
Thanks: 7668 time(s)
Russian Federation


Register


Go to the top of the page
  Insert nick Quick quote
+Quote Post
post Apr 26 2019, 11:11:36
Post #4

Group Icon
Group: S-moderation team
Posts: 20,700
Releases: 1443
From: Zagreb
On Forums: 10 years 2 months
Thanks: 94889 time(s)
Croatia


Register


Thanks:
Go to the top of the page
  Insert nick Quick quote
+Quote Post
post Apr 8 2021, 14:41:31
Post #5

Правь статус, ####!111
**************
Group: Металариец
Posts: 4,493
Releases: 258
From: MoscoW
On Forums: 14 years 5 months
Thanks: 4935 time(s)
Russian Federation


LEBENSNACHT:


NATURMACHT Productions:
Go to the top of the page
  Insert nick Quick quote
+Quote Post

Reply to this topicStart new topic
1 User(s) are reading this topic (1 Guests and 0 Anonymous Users)
0 Members:

 



- Lo-Fi Version Support form
Copyrights and abuse reports form
Time is now: 11th May 2021 - 09:07:45