Welcome Guest ( Log In | Register )

 
Reply to this topicStart new topic
> Dirk Diggler - Dirk Diggler (2010), Grindcore
post May 23 2013, 08:10:15
Post #1

Три Литра
***
Group: Завсегдатай
Posts: 209
Releases: 8
From: Нск
On Forums: 13 years 6 months
Thanks: 143 time(s)
Russian Federation


(IMG:http://metalarea.org/images/audiocovers/2013_May/acov_tid201544_thumb.jpeg)

*Artist: Dirk Diggler
*Album: Dirk Diggler
*Year: 2010
*Genre: Grindcore
*Country: Israel (IMG:http://metalarea.org/forum/style_images/flags/Israel.png)
*Format: mp3@CBR320kbps
*Size: 45MB

Tracklist:
1 Shir She'ho Kolo Ani 1:18
2 Ha'gehenom Magia Be'mitog Me'hadash 0:50
3 Bli Bgadim At Lo Nir'et Datia 1:39
4 Geometria Frektalit 1:11
5 Masa Retzach Le'taer Et Hiochech 0:49
6 Ha'kol Ha'metaftef Tzahar 1:22
7 Itzmi Et Ha'eynaim (Pitchi Et Ha'pe) 3:37
8 Kitmei Dam Al Tmonot Yom Holedet 0:48
9 Zro'ot Tmanon 1:04
10 Sandy Bar 0:57
11 Or (Me'shaker Le'atzmo) 2:03
12 Rochev Amiti Rochev Gam Al Pony 0:31
13 Ha'yamim Ha'rishonim Shel Yanuhar 2:29
14 Nitzba! 1:25
******************************
Total playing time: 20:03

(IMG:http://metalarea.org/images/youtube.png)

Technical info
(IMG:http://metalarea.org/images/spectrogram/2013_May/38288f9e9410d2f04b18f71cfdbb670e.png)
Input File: 04. Geometria Frektalit.mp3
Channels : 2
Sample Rate : 44100
Precision : 16-bit
Duration : 00:01:11.06 = 3133834 samples = 5329.65 CDDA sectors
File Size : 2.84M
Bit Rate : 320k
Sample Encoding: MPEG audio (layer I, II or III)
Comments :
Title=Geometria Frektalit
Artist=Dirk Diggler
Album=Dirk Diggler
Tracknumber=4
Year=2010
Genre=Grindcore



Register


Thanks:
Go to the top of the page
  Insert nick Quick quote
+Quote Post

Reply to this topicStart new topic
2 User(s) are reading this topic (2 Guests and 0 Anonymous Users)
0 Members:

 



- Lo-Fi Version Support form
Copyrights and abuse reports form
Time is now: 31st July 2021 - 11:29:36