Welcome Guest ( Log In | Register )

 
Reply to this topicStart new topic
> Dying Sun Mourning & Sculptor - Dreams From The Blacklone Land [split] (2013), Doom/Death Metal | Doom/Death Metal
post May 24 2013, 20:13:30
Post #1

Шесть Литров
******
Group: Металариец
Posts: 653
Releases: 7
From: Tambovskaya obl,Rasskazovo city
On Forums: 12 years 10 months
Thanks: 416 time(s)
Russian Federation


(IMG:http://metalarea.org/images/audiocovers/2013_May/acov_tid201664_thumb.jpg)

*Artist: Dying Sun Mourning & Sculptor
*Album: Dreams From The Blacklone Land [split]
*Year: 2013
*Genre: Doom/Death Metal | Doom/Death Metal
*Country: Russian Federation (IMG:http://metalarea.org/forum/style_images/flags/Russian%20Federation.png) | Russian Federation (IMG:http://metalarea.org/forum/style_images/flags/Russian%20Federation.png)
*Format: mp3@CBR320kbps
*Size: 160MB

Tracklist:
Dying Sun Mourning:
01. My Endless Lament 12:49
02. The Crown of Solitude 10:31
03. Everybody Dies Alone 14:42
Sculptor:
04. The Black Day (Part I) 05:59
05. The Black Day (Part II) 08:58
06. ...And Then The Ashes Will Fail 04:34
07. The Night Solely 07:49
08. To The Void 03:38
******************************
Total playing time: 1:09:00



Technical info
(IMG:http://metalarea.org/images/spectrogram/2013_May/11f2b17645b30b0fa70c1201d9869bb3.png)
Input File: 04 - Sculptor - The Black Day (Part I).mp3
Channels : 2
Sample Rate : 44100
Precision : 16-bit
Duration : 00:05:59.16 = 15838956 samples = 26937 CDDA sectors
File Size : 14.4M
Bit Rate : 320k
Sample Encoding: MPEG audio (layer I, II or III)
Comments :
Title=The Black Day (Part I)
Artist=Sculptor
Album=Dreams from the Blacklone Land
Tracknumber=4
Year=2013



Register


This post has been edited by antonovivan: Jun 3 2015, 16:10:56


Go to the top of the page
  Insert nick Quick quote
+Quote Post

Reply to this topicStart new topic
2 User(s) are reading this topic (2 Guests and 0 Anonymous Users)
0 Members:

 



- Lo-Fi Version Support form
Copyrights and abuse reports form
Time is now: 24th February 2020 - 00:18:34