Welcome Guest ( Log In | Register )

> 

Здесь релизы с живыми прямыми ссылками на lossless

> Hate Meditation - Scars (2013), Black Metal
post May 28 2013, 22:48:01
Post #1

Мегаманьяк
***********
Group: Металариец
Posts: 1,981
Releases: 1612
From: Saratov
On Forums: 13 years 9 months
Thanks: 57949 time(s)
Russian Federation


(IMG:http://metalarea.org/images/audiocovers/2013_May/acov_tid201948_thumb.jpg)

*Artist: Hate Meditation
*Album: Scars
*Year: 2013
*Genre: Black Metal
*Country: United States (IMG:http://metalarea.org/forum/style_images/flags/United%20States.png)
*Format: mp3@CBR320kbps
*Size: 107MB

Tracklist:
1. Prelude To Apocalypse 01:44
2. The Deceiver and the Believer 07:19
3. Impure Rage 05:32
4. End Times 07:41
5. The Genocide March 07:14
6. Wrath and Revenge 05:50
7. Scars 10:19
8. Shadow World 00:53
******************************
Total playing time: 46:32

(IMG:http://metalarea.org/images/youtube.png)

Extended info
line-up:
Azentrius - Vocals, Guitars, Bass, Synthetizers (Drug Honkey, Twilight, Nachtmystium, Ezurate, Krieg, Helms Deep)
Wrest - Bass (Krieg, Leviathan, Twilight, Chrome Waves (live), Lurker of Chalice, Von Goat, Sunn O))) (live), Nachtmystium, GiftHorse)
Sam Shroyer - Drums (Vitandus)
Job Bos Keyboards, Synthetizers (Beliar, Dood, Dark Fortress (live))


Technical info
(IMG:http://metalarea.org/images/spectrogram/2013_May/4047b885f5eace417a8b2f72d2bd9496.png)
Input File: 02 The Deceiver and The Believer Part.mp3
Channels : 2
Sample Rate : 44100
Precision : 16-bit
Duration : 00:02:26.44 = 6458092 samples = 10983.1 CDDA sectors
File Size : 5.86M
Bit Rate : 320k
Sample Encoding: MPEG audio (layer I, II or III)
Comments :
Title=The Deceiver and The Believer
Artist=Hate Meditation
Album=Scars
Tracknumber=2
Year=2013
Genre=95
Discnumber=1



Register


Go to the top of the page
  Insert nick Quick quote
+Quote Post
2 Pages V  < 1 2  
Start new topic
Replies (30 - 35)
post Jun 19 2013, 10:34:59
Post #31

Правь статус, ####!111
**************
Group: Металариец
Posts: 3,948
Releases: 1
From: Рейх
On Forums: 14 years 10 months
Thanks: 971 time(s)
Ukraine


Какой же кайф для ушей, что за песня уже хит! Есть небольшой налет психоделики от Твайлайта, но самую малость. Слушаешь и понимаешь чьих рук дело, но опять же ничего общего с Leviathan, Twilight и Nachtmystium здесь нет. Приятно, что одни и те же люди выдают совершенно новые идеи и не пишут просто материал ради самого материала.
Go to the top of the page
  Insert nick Quick quote
+Quote Post
post Aug 5 2013, 18:01:06
Post #32

железный нечеловек
**********
Group: Металариец
Posts: 1,314
Releases: 3
From: Уфа
On Forums: 12 years 1 month
Thanks: 476 time(s)
Russian Federation


Я не большой любитель US Black Metal, и уж да извинят меня остальные, отношусь к нему предвзято. Но это альбомище просто великолепен,напомнил мне ранний Emperor,и да, больше всего понравилась "The Genocide March".
Go to the top of the page
  Insert nick Quick quote
+Quote Post
post Nov 23 2013, 19:48:18
Post #33

Black is beautiful
***********
Group: Металариец
Posts: 1,859
Releases: 4
On Forums: 9 years 3 months
Thanks: 384 time(s)
Unknown




Wonderful atmosphere!

I like it.

(IMG:style_emoticons/default/true_black.gif) (IMG:style_emoticons/default/true_black.gif)
Go to the top of the page
  Insert nick Quick quote
+Quote Post
post Aug 11 2014, 07:58:27
Post #34

а ты попал в даунтаун
***********
Group: Металариец
Posts: 1,561
Releases: 59
From: Москва
On Forums: 12 years 2 months
Thanks: 4302 time(s)
Russian Federation


В lossless нет ни у кого?
Go to the top of the page
  Insert nick Quick quote
+Quote Post
post Apr 7 2021, 10:10:44
Post #35

Group: Дух
Posts: 5
Releases: 0
On Forums: 15 years 7 months
Thanks: 0 time(s)
Russian Federation


Any chance of a re-upload? Cheers!
Go to the top of the page
  Insert nick Quick quote
+Quote Post
post Apr 12 2021, 15:10:12
Post #36

Group Icon
Group: S-moderation team
Posts: 21,178
Releases: 1443
From: Zagreb
On Forums: 10 years 3 months
Thanks: 97642 time(s)
Croatia


Register
Register


Thanks:
Go to the top of the page
  Insert nick Quick quote
+Quote Post

2 Pages V  < 1 2
Reply to this topicStart new topic
1 User(s) are reading this topic (1 Guests and 0 Anonymous Users)
0 Members:

 



- Lo-Fi Version Support form
Copyrights and abuse reports form
Time is now: 23rd June 2021 - 18:54:59