Welcome Guest ( Log In | Register )

> Forum rules / Правила раздела

Here go releases which can't go to New releases forums due lack of information, stolen links or incorrect data and just founded in other sites links with minimum info. Reissue of this releases through Add release form with added/corrected data, info and own links highly welcomed.

Сюда уходят релизы, не пропущенные в основные релизные форумы по причинам отсутствия, недостаточности или неверности/некорректности сопровождающей информации, содержащие ссылки, указывающие на файлы, залитые не автором темы, а так же просто найденные где-то ссылки с минимумом информации. Переоформление тем отсюда через форму Добавления релиза с перезаливкой ссылок крайне приветствуется.

> Opeth - The Drapery Falls [single] (2001), Progressive Death Metal (D)
post Jun 1 2013, 08:23:51
Post #1

Join my religion, or die
**************
Group: Металариец
Posts: 10,727
Releases: 1528
From: Питера
On Forums: 10 years 9 months
Thanks: 19806 time(s)
Russian Federation


(IMG:http://metalarea.org/images/audiocovers/2013_Jun/acov_tid202131_thumb.jpg)

*Artist: Opeth
*Album: The Drapery Falls [single]
*Year: 2001
*Genre: Progressive Death Metal
*Country: Sweden (IMG:http://metalarea.org/forum/style_images/flags/Sweden.png)
*Format: mp3@CBR320kbps
*Size: 12MB

Tracklist:
1. The Drapery Falls (Radio Edit) 05:06
******************************
Total playing time: 5:06

Technical info
(IMG:http://metalarea.org/images/spectrogram/2013_Jun/b899808a30ce6cc54be19454ee9b13a1.png)
Input File: 01 - Opeth - The Drapery Falls (Radio Edit).mp3
Channels : 2
Sample Rate : 44100
Precision : 16-bit
Duration : 00:05:06.27 = 13506287 samples = 22969.9 CDDA sectors
File Size : 12.3M
Bit Rate : 322k
Sample Encoding: MPEG audio (layer I, II or III)
Comments :
Title=The Drapery Falls (Radio Edit)
Artist=Opeth
Album=The Drapery Falls (Single)
Tracknumber=1
Year=2001
Genre=Death Metal




Register


Thanks:
Go to the top of the page
  Insert nick Quick quote
+Quote Post
 
Start new topic
Replies (1 - 1)
post Nov 8 2019, 06:43:20
Post #2

Шесть Литров
******
Group: Металариец
Posts: 656
Releases: 0
From: Hell
On Forums: 4 years 11 months
Thanks: 21 time(s)
Afghanistan


Please reupload!


Thanks:
(1) Kaamos,
Go to the top of the page
  Insert nick Quick quote
+Quote Post

Reply to this topicStart new topic
1 User(s) are reading this topic (1 Guests and 0 Anonymous Users)
0 Members:

 



- Lo-Fi Version Support form
Copyrights and abuse reports form
Time is now: 5th July 2020 - 08:24:45