Welcome Guest ( Log In | Register )

> Iron Kingdom - Gates Of Eternity (2013), Heavy Metal
post Jun 2 2013, 15:06:04
Post #1

Serial Uploader
Group Icon
Group: V.I.P
Posts: 42,002
Releases: 40072
From: Lithuania
On Forums: 15 years 8 months
Thanks: 510832 time(s)
Lithuania


(IMG:http://metalarea.org/images/audiocovers/2013_Jun/acov_uid41155_20b96ebc2142977cb90426ebbd76688e_thumb.jpg)

*Artist: Iron Kingdom
*Album: Gates Of Eternity
*Year: 2013
*Genre: Heavy Metal
*Country: Canada (IMG:http://metalarea.org/forum/style_images/flags/Canada.png)
*Format: mp3@CBR320kbps
*Size: 124MB

Tracklist:
01. At The Gates 06:01
02. Chains Of Solitude 07:07
03. Demon Of Deception 06:02
04. Candeloro 02:25
05. Guardian Angel 05:11
06. At Home In The Dark 05:21
07. Crowned In Iron 06:03
08. Egypt (The End Is Near) 15:12
09. Shadow Of Death 03:16
******************************
Total playing time: 56:38

(IMG:http://metalarea.org/images/myspace.png)

Technical info
(IMG:http://metalarea.org/images/spectrogram/2013_Jun/b07eda93c32cc78ed40a7e785cb8656e.png)
Input File: 2. Chains of Solitude.mp3
Channels : 2
Sample Rate : 44100
Precision : 16-bit
Duration : 00:07:07.64 = 18858968 samples = 32073.1 CDDA sectors
File Size : 17.1M
Bit Rate : 320k
Sample Encoding: MPEG audio (layer I, II or III)
Comments :
Title=Chains of Solitude
Artist=Iron Kingdom
Album=Gates of Eternity
Tracknumber=2
Genre=Other



Register


Go to the top of the page
  Insert nick Quick quote
+Quote Post
 
Start new topic
Replies (1 - 2)
post Jun 5 2013, 16:05:32
Post #2

No More Tears
**************
Group: Металариец
Posts: 5,014
Releases: 114
From: Тбилиси, Грузия
On Forums: 17 years 7 months
Thanks: 2446 time(s)
Georgia


Ольдсулл.
Все нормально.
Go to the top of the page
  Insert nick Quick quote
+Quote Post
post Jun 17 2013, 17:46:09
Post #3

Перевозчик
**************
Group: Металариец
Posts: 3,607
Releases: 0
On Forums: 15 years 7 months
Thanks: 796 time(s)
Russian Federation


Go to the top of the page
  Insert nick Quick quote
+Quote Post

Reply to this topicStart new topic
1 User(s) are reading this topic (1 Guests and 0 Anonymous Users)
0 Members:

 



- Lo-Fi Version Support form
Copyrights and abuse reports form
Time is now: 29th February 2024 - 04:17:39