Welcome Guest ( Log In | Register )

Объявления

* gmail.com упорно продолжает считать почту с нас "unsolicited" и отбивает в том числе и письма активации, поэтому просьба использовать альтернативные почтовые ящики.
------------
* gmail.com continues reject all mail from us as "unsolicited" (activation mails too) therefore please use alternate mail servers.
> Death Dealer - War Master (2013), Heavy/Power Metal
post Jun 14 2013, 15:12:20
Post #1

Serial Uploader
Group Icon
Group: V.I.P
Posts: 42,431
Releases: 40495
From: Lithuania
On Forums: 15 years 10 months
Thanks: 517614 time(s)
Lithuania


(IMG:http://metalarea.org/images/audiocovers/2013_Jun/acov_tid203163_thumb.jpg)

*Artist: Death Dealer
*Album: War Master
*Year: 2013
*Genre: Heavy/Power Metal
*Country: United States (IMG:http://metalarea.org/forum/style_images/flags/United%20States.png)
*Format: mp3@CBR320kbps
*Size: 136MB

Tracklist:
01. Death Dealer 05:21
02. Never To Kneel 04:36
03. Warmaster 05:06
04. Children Of Flames 05:15
05. Curse Of The Heretic 05:18
06. Hammer Down 04:51
07. Devil’s Mile 06:29
08. Liberty Or Death 04:40
09. Heads, Spikes, Walls 04:05
10. Wraiths On The Wind 04:43
11. Judge, Jury And Executioner 04:45
12. Triumph And Victory 05:08
******************************
Total playing time: 1:00:17



Extended info

(IMG:http://metalarea.org/images/spectrogram/2013_Jun/5c92deae1d065ddcf65c9375a7d56c84.png)
Input File: 06. Hammer Down.mp3
Channels : 2
Sample Rate : 44100
Precision : 16-bit
Duration : 00:04:51.92 = 12873672 samples = 21894 CDDA sectors
File Size : 11.7M
Bit Rate : 320k
Sample Encoding: MPEG audio (layer I, II or III)
Comments :
Title=Hammer Down
Artist=Death Dealer
Album=War Master
Tracknumber=6/12
Genre=Heavy / Power Metal



Register


Go to the top of the page
  Insert nick Quick quote
+Quote Post
 
Start new topic
Replies (1 - 7)
post Jun 15 2013, 10:07:23
Post #2

Маньяк
**********
Group: Металариец
Posts: 1,431
Releases: 0
From: Moscow
On Forums: 16 years 5 months
Thanks: 893 time(s)
Russian Federation


Смотрим на состав, уважаемые.
Как и следовало ожидать, получился своеобразный микс Россовских "сольников" и ВИА Cage (все же уже узрели, что глотку тут дерёт кейджевский Шон Пек?). В общем, слушабельно, но на пару раз, не больше. Из песен выделю кейджевскую кричалку "Death Dealer", следующюю за ней среднетемповую "Never to Kneel", nwobhm-образную "Devil's Mile" (вот она правда крутая) и и припаверенную закрывашку "Triumph and Victory". Балладка со свистелками ещё приличная.


Go to the top of the page
  Insert nick Quick quote
+Quote Post
post Jun 19 2013, 07:34:34
Post #3

666satanath@gmail.com
Group Icon
Group: Moderation team
Posts: 6,285
Releases: 645
From: Satan-Petersburg
On Forums: 13 years 5 months
Thanks: 15942 time(s)
Russian Federation


Updated links by necroscum


Thanks:
(1) necroscum,
Go to the top of the page
  Insert nick Quick quote
+Quote Post
post Jun 22 2013, 09:39:37
Post #4

Ъ
**************
Group: Металариец
Posts: 11,214
Releases: 9
On Forums: 15 years 3 months
Thanks: 2276 time(s)
Sweden


Скачал по рекомендации в какой то теме, но не моё совсем.
Go to the top of the page
  Insert nick Quick quote
+Quote Post
post Sep 10 2013, 16:37:46
Post #5

Наливай!
**************
Group: Металариец
Posts: 6,422
Releases: 27
From: Москва-Бибирево
On Forums: 16 years 1 month
Thanks: 3338 time(s)
Russian Federation


А мне приглянулось. Достойная работа (IMG:style_emoticons/default/20.gif)
Go to the top of the page
  Insert nick Quick quote
+Quote Post
post Mar 26 2022, 05:08:49
Post #6

Два Литра
**
Group: Завсегдатай
Posts: 113
Releases: 0
On Forums: 3 years 4 months
Thanks: 10 time(s)
Unknown


reupload plz
Go to the top of the page
  Insert nick Quick quote
+Quote Post
post Mar 26 2022, 05:56:08
Post #7

Правь статус, ####!111
**************
Group: Металариец
Posts: 4,472
Releases: 0
From: UK
On Forums: 7 years 10 months
Thanks: 1182 time(s)
United Kingdom


Register


Thanks:
Go to the top of the page
  Insert nick Quick quote
+Quote Post
post Mar 28 2022, 04:06:04
Post #8

Два Литра
**
Group: Завсегдатай
Posts: 113
Releases: 0
On Forums: 3 years 4 months
Thanks: 10 time(s)
Unknown


QUOTE(Wail @ Mar 26 2022, 05:56:08) *
[url=http://320]

Thank you.


Thanks:
(1) Wail,
Go to the top of the page
  Insert nick Quick quote
+Quote Post

Reply to this topicStart new topic
2 User(s) are reading this topic (2 Guests and 0 Anonymous Users)
0 Members:

 



- Lo-Fi Version Support form
Copyrights and abuse reports form
Time is now: 25th April 2024 - 14:13:30