Welcome Guest ( Log In | Register )

 
Reply to this topicStart new topic
> Mistreater - Mistreater (1985), Heavy Metal
post Jun 16 2013, 20:25:26
Post #1

Serial Uploader
Group Icon
Group: V.I.P
Posts: 42,058
Releases: 40128
From: Lithuania
On Forums: 15 years 8 months
Thanks: 511597 time(s)
Lithuania


(IMG:http://metalarea.org/images/audiocovers/2013_Jun/acov_tid203268_thumb.jpg)

*Artist: Mistreater
*Album: Mistreater
*Year: 1985
*Genre: Heavy Metal
*Country: United States (IMG:http://metalarea.org/forum/style_images/flags/United%20States.png)
*Format: mp3@CBR320kbps
*Size: 72MB

Tracklist:
01. Quest 04:50
02. Liquid Shadows 03:35
03. Deviated 04:24
04. Prowless 03:45
05. Mastermyth 04:11
06. Imperial Witch 04:30
07. Red Lights 03:50
08. Wild Child 03:48
09. Morality's Nightmare 03:05
******************************
Total playing time: 35:58

Extended info
Рекомендация перенести релиз в низкобитрейтный раздел


Technical info
(IMG:http://metalarea.org/images/spectrogram/2013_Jun/9f6fd18b67e12c87ca6e37ba15c47769.png)
Input File: 02. Liquid Shadows.mp3
Channels : 2
Sample Rate : 44100
Precision : 16-bit
Duration : 00:03:35.41 = 9499713 samples = 16156 CDDA sectors
File Size : 8.68M
Bit Rate : 322k
Sample Encoding: MPEG audio (layer I, II or III)
Comments :
Title=Liquid Shadows
Artist=Mistreater
Album=Mistreater
Tracknumber=2
Year=1985
Genre=Heavy Metal



Register


Thanks:
(2) wreak, Xutun,
Go to the top of the page
  Insert nick Quick quote
+Quote Post
post Mar 19 2023, 17:01:08
Post #2

Совки, гулаги, дефициты
***********
Group: Металариец
Posts: 1,893
Releases: 0
From: Беларусь, Минск
On Forums: 16 years 8 months
Thanks: 944 time(s)
Belarus


Хороший хэви, правильный. Запись, правда, не очень, вокал сильно вперед выведен, но что поделаешь... Ищите на торрентах, там есть.
Go to the top of the page
  Insert nick Quick quote
+Quote Post

Reply to this topicStart new topic
1 User(s) are reading this topic (1 Guests and 0 Anonymous Users)
0 Members:

 



- Lo-Fi Version Support form
Copyrights and abuse reports form
Time is now: 5th March 2024 - 13:07:04