Welcome Guest ( Log In | Register )

Объявления

* gmail.com упорно продолжает считать почту с нас "unsolicited" и отбивает в том числе и письма активации, поэтому просьба использовать альтернативные почтовые ящики.
------------
* gmail.com continues reject all mail from us as "unsolicited" (activation mails too) therefore please use alternate mail servers.
> I Am The Trireme - Pray For Damnation [ep] (2012), Black/Death Metal
frost192
post Jun 19 2013, 21:06:34
Post #1

Guests team






(IMG:http://metalarea.org/images/audiocovers/2013_Jun/acov_tid203447_thumb.jpg)

*Artist: I Am The Trireme
*Album: Pray For Damnation [ep]
*Year: 2012
*Genre: Black/Death Metal
*Country: United States (IMG:http://metalarea.org/forum/style_images/flags/United%20States.png)
*Format: mp3@CBR320kbps
*Size: 60MB

Tracklist:
1. Repulsed by the Sun 6:31
2. ILU, Eternal Wrath of the Tyrant 6:01
3. Secrets in the Art of of Necromancy 1:54
4. Into the Ghastly Hollows 5:11
5. A Fallen Symbol of Hope 5:32
******************************
Total playing time: 25:09

Technical info
(IMG:http://metalarea.org/images/spectrogram/2013_Jun/59264324b1135b2e7e171a8200b726ca.png)
Input File: 02 ILU, Eternal Wrath of the Tyrant.mp3
Channels : 2
Sample Rate : 44100
Precision : 16-bit
Duration : 00:06:01.09 = 15924201 samples = 27082 CDDA sectors
File Size : 14.4M
Bit Rate : 320k
Sample Encoding: MPEG audio (layer I, II or III)
Comments :
Title=ILU, Eternal Wrath of the Tyrant
Artist=I Am the Trireme
Album=Pray for Damnation
Tracknumber=2/5
Year=2012
Genre=Death Metal
Discnumber=1/1



Register


Go to the top of the page
  Insert nick Quick quote
+Quote Post
 
Start new topic
Replies (1 - 2)
post Jan 26 2016, 11:12:38
Post #2

Литр
*
Group: Подсевший
Posts: 68
Releases: 0
From: Минск
On Forums: 16 years 6 months
Thanks: 100 time(s)
Belarus


Перезалейте кто, пжлст=)
Go to the top of the page
  Insert nick Quick quote
+Quote Post
post Mar 20 2019, 21:10:06
Post #3

Ich bin die Trauer menschlich, kommen Sie zu mir und ich werde Ihnen vergelten
**************
Group: Металариец
Posts: 4,077
Releases: 691
From: Koenigsberg
On Forums: 16 years 4 months
Thanks: 12640 time(s)
Russian Federation


Register



Thanks:
Go to the top of the page
  Insert nick Quick quote
+Quote Post

Reply to this topicStart new topic
2 User(s) are reading this topic (2 Guests and 0 Anonymous Users)
0 Members:

 



- Lo-Fi Version Support form
Copyrights and abuse reports form
Time is now: 30th May 2024 - 23:11:28