Welcome Guest ( Log In | Register )

> Wandar - Landlose Ufer (2012), Black Metal
post Jun 20 2013, 02:15:05
Post #1

Пять Литров
*****
Group: Металариец
Posts: 481
Releases: 21
On Forums: 13 years 1 month
Thanks: 867 time(s)
China


(IMG:http://metalarea.org/images/audiocovers/2013_Jun/acov_tid203455_thumb.jpg)

*Artist: Wandar
*Album: Landlose Ufer
*Year: 2012
*Genre: Black Metal
*Country: Germany (IMG:http://metalarea.org/forum/style_images/flags/Germany.png)
*Format: mp3@CBR320kbps
*Size: 96MB

Tracklist:
1.Gen Norden brandet die See 05:43
2.Raunen 08:02
3.Waldgnger 09:32
4.Die Brde des Morgens 05:33
5.Trollgebunden 06:50
6.Wintersang 06:07
******************************
Total playing time: 41:47

(IMG:http://metalarea.org/images/myspace.png)
(IMG:http://metalarea.org/images/youtube.png)

Extended info
CD-Rip 320K


Technical info
(IMG:http://metalarea.org/images/spectrogram/2013_Jun/0cfc71bf70e0d67a7f5a8198212480ee.png)
Input File: 04. Die Brde Des Morgens.mp3
Channels : 2
Sample Rate : 44100
Precision : 16-bit
Duration : 00:05:33.38 = 14702190 samples = 25003.7 CDDA sectors
File Size : 13.3M
Bit Rate : 320k
Sample Encoding: MPEG audio (layer I, II or III)
Comments :
Title=Die BГјrde Des Morgens
Artist=Wandar
Album=Landlose Ufer
Tracknumber=4/6
Year=2012
Genre=Metal



Register

Register


Go to the top of the page
  Insert nick Quick quote
+Quote Post
 
Start new topic
Replies (1 - 4)
post Jun 20 2013, 16:27:50
Post #2

Маньяк
**********
Group: Металариец
Posts: 1,424
Releases: 3
From: Новороссия
On Forums: 15 years 4 months
Thanks: 780 time(s)
Russian Federation


Прекрасный атмосферный блэк, создаётся ощущение вторичности, но сделано качественно.
Go to the top of the page
  Insert nick Quick quote
+Quote Post
post Dec 19 2017, 11:36:41
Post #3

Шесть Литров
******
Group: Металариец
Posts: 603
Releases: 0
From: Johannesburg, South Africa
On Forums: 11 years 11 months
Thanks: 164 time(s)
South Africa



Please re-up!

(IMG:style_emoticons/default/pray.gif)
Go to the top of the page
  Insert nick Quick quote
+Quote Post
post Dec 19 2017, 16:06:37
Post #4

Шесть Литров
******
Group: Металариец
Posts: 589
Releases: 2
On Forums: 7 years 8 months
Thanks: 650 time(s)
Unknown


QUOTE(MortSathynr @ Dec 19 2017, 11:36:41) *

From the web Dark-World:
Register


Go to the top of the page
  Insert nick Quick quote
+Quote Post
post Apr 4 2021, 02:10:09
Post #5

\m/
Group Icon
Group: S-moderation team
Posts: 7,932
Releases: 19
From: Петропавловск-Камчатский
On Forums: 12 years 1 week
Thanks: 7985 time(s)
Russian Federation


Added links by Samaritianin



Extended info
Sigurdur Bass
Zazhgul Guitars
Westram Guitars
Skoll von Kallenheim Vocals
Michael Drums


Technical info
(IMG:https://metalarea.org/images/spectrogram/2021_Apr/31c83d4626c03d7feb644e9d76b03353.png)
Input File: 06 Wintersang.mp3
Channels : 2
Sample Rate : 44100
Precision : 16-bit
Duration : 00:05:39.09 = 14953781 samples = 25431.6 CDDA sectors
File Size : 14.2M
Bit Rate : 335k
Sample Encoding: MPEG audio (layer I, II or III)
Comments :
Title=Wintersang
Artist=WANDAR
Album=Landlose Ufer
Tracknumber=6/6
Year=2021-21-20
Discnumber=1/1



Thanks:
Go to the top of the page
  Insert nick Quick quote
+Quote Post

Reply to this topicStart new topic
2 User(s) are reading this topic (2 Guests and 0 Anonymous Users)
0 Members:

 



- Lo-Fi Version Support form
Copyrights and abuse reports form
Time is now: 25th June 2021 - 11:48:01