Welcome Guest ( Log In | Register )

> Legend - The Dark Place (2013), NWOBHM (D)
post Jun 22 2013, 12:47:34
Post #1

Serial Uploader
Group Icon
Group: V.I.P
Posts: 40,616
Releases: 38715
From: Lithuania
On Forums: 15 years 10 hours
Thanks: 487199 time(s)
Lithuania


(IMG:http://metalarea.org/images/audiocovers/2013_Jun/acov_tid203584_thumb.jpg)

*Artist: Legend
*Album: The Dark Place
*Year: 2013
*Genre: NWOBHM
*Country: United Kingdom (IMG:http://metalarea.org/forum/style_images/flags/United%20Kingdom.png)
*Format: mp3@CBR320kbps
*Size: 122MB

Tracklist:
01. The Dark Place 04:15
02. Red 07:50
03. Too Late To Be A Hero 03:12
04. Halls Of The Dead 04:16
05. The Watcher 04:05
06. Monster 04:02
07. Paragon 04:20
08. Burn With Your Demons 04:19
09. Questions & Answers 04:09
10. Taste Of Life 06:05
11. Play Your Game 05:46
******************************
Total playing time: 52:19

Preview 1

Technical info
(IMG:http://metalarea.org/images/spectrogram/2013_Jun/97e050c79edb67d7c10d1a731ab0cf45.png)
Input File: 06. Monster.mp3
Channels : 2
Sample Rate : 44100
Precision : 16-bit
Duration : 00:04:02.89 = 10711273 samples = 18216.5 CDDA sectors
File Size : 9.93M
Bit Rate : 327k
Sample Encoding: MPEG audio (layer I, II or III)
Comments :
Title=Monster
Artist=Legend
Album=The Dark Place
Tracknumber=6/11
Year=2013



Register


Go to the top of the page
  Insert nick Quick quote
+Quote Post
 
Start new topic
Replies (1 - 3)
post Jun 25 2013, 13:51:50
Post #2

Ъ
**************
Group: Металариец
Posts: 11,142
Releases: 9
On Forums: 14 years 4 months
Thanks: 2247 time(s)
Sweden


Из трех первых песен порадовал один бодрый риф, он кстати один на все три песни (IMG:style_emoticons/default/1488.gif) шифт+дел
Go to the top of the page
  Insert nick Quick quote
+Quote Post
post Feb 18 2015, 10:13:59
Post #3

Шесть Литров
******
Group: Металариец
Posts: 541
Releases: 0
From: Tetovo
On Forums: 17 years 1 month
Thanks: 25 time(s)
Macedonia


Almost all your links is dead...Please try to reup !!!
Go to the top of the page
  Insert nick Quick quote
+Quote Post
post May 18 2018, 00:09:10
Post #4

Три Литра
***
Group: Завсегдатай
Posts: 277
Releases: 0
On Forums: 10 years 9 months
Thanks: 31 time(s)
United States


320 link from the web:

Register


Thanks:
(1) Xtohar,
Go to the top of the page
  Insert nick Quick quote
+Quote Post

Reply to this topicStart new topic
2 User(s) are reading this topic (2 Guests and 0 Anonymous Users)
0 Members:

 



- Lo-Fi Version Support form
Copyrights and abuse reports form
Time is now: 8th June 2023 - 00:34:41