Welcome Guest ( Log In | Register )

> 

Здесь релизы с живыми прямыми ссылками на lossless

> Phobos Preacher - Humanos (2013), Death/Thrash Metal
post Jun 30 2013, 10:22:26
Post #1

Правь статус, ####!111
**************
Group: Металариец
Posts: 30,923
Releases: 22794
From: Г.Харьков
On Forums: 10 years 6 months
Thanks: 477015 time(s)
Unknown


(IMG:http://metalarea.org/images/audiocovers/2013_Jun/acov_tid203985_thumb.jpg)

*Artist: Phobos Preacher
*Album: Humanos
*Year: 2013
*Genre: Death/Thrash Metal
*Country: Spain (IMG:http://metalarea.org/forum/style_images/flags/Spain.png)
*Format: mp3@CBR320kbps
*Size: 72MB

Tracklist:
01.Preludio 01:00
02.Agonia 03:32
03.La Perdicion 03:01
04.Hipocresia 03:41
05.Humanos 02:12
06.Lagrimas De Arena 03:45
07.La Ultima Cena 04:22
08.Abre Tu Mente 03:50
09.Ahogado En Mi Adiccion 03:31
10.Doctrina Odiada 03:04
******************************
Total playing time: 31:58

Preview 1
(IMG:http://metalarea.org/images/myspace.png)

Extended info


Technical info
(IMG:http://metalarea.org/images/spectrogram/2013_Jun/6cc38b219dc31003939ef9970203693d.png)
Input File: 03 - La Perdicion.mp3
Channels : 2
Sample Rate : 44100
Precision : 16-bit
Duration : 00:03:01.16 = 7989244 samples = 13587.1 CDDA sectors
File Size : 7.25M
Bit Rate : 320k
Sample Encoding: MPEG audio (layer I, II or III)
Comments :
Title=La Perdicion
Artist=Phobos Preacher
Album=Humanos
Tracknumber=3
Year=2013
Genre=Death/Thrash Metal



Register


Go to the top of the page
  Insert nick Quick quote
+Quote Post
 
Start new topic
Replies (1 - 5)
post Jul 17 2013, 19:16:32
Post #2

_ - = # Thrashogolic # = - _ ... а давайте поржём все вместе
**************
Group: Металариец
Posts: 21,095
Releases: 4442
From: 404
On Forums: 12 years 5 months
Thanks: 28256 time(s)
Ukraine


Нормальная музыка. Не супер, но как минимум средне (а кому-то может понравится больше).
Ребята (в общем и целом) не спешат, кое-где с грувцой; ну и колорит латино-языка и хрипотцы (брутальности) вокала соотв.
Go to the top of the page
  Insert nick Quick quote
+Quote Post
post Nov 13 2021, 10:06:51    Сейчас играет: Re-up please ;-)
Post #3

Правь статус, ####!111
**************
Group: Металариец
Posts: 2,607
Releases: 0
From: Sofia
On Forums: 15 years 2 months
Thanks: 87 time(s)
Bulgaria


Please re-up (IMG:style_emoticons/default/pray.gif) (IMG:style_emoticons/default/pray.gif)
Go to the top of the page
  Insert nick Quick quote
+Quote Post
post Nov 14 2021, 10:23:24
Post #4

Правь статус, ####!111
Group Icon
Group: S-moderation team
Posts: 22,058
Releases: 1443
On Forums: 11 years 9 months
Thanks: 114601 time(s)
Unknown


Register


Thanks:
Go to the top of the page
  Insert nick Quick quote
+Quote Post
post Nov 14 2021, 10:37:25
Post #5

Правь статус, ####!111
**************
Group: Металариец
Posts: 2,607
Releases: 0
From: Sofia
On Forums: 15 years 2 months
Thanks: 87 time(s)
Bulgaria


Thank you !! (IMG:style_emoticons/default/9.gif) (IMG:style_emoticons/default/9.gif) (IMG:style_emoticons/default/pray.gif)


QUOTE(Moldavite @ Nov 14 2021, 09:23:24) *

Go to the top of the page
  Insert nick Quick quote
+Quote Post
post Nov 14 2021, 16:09:26
Post #6

Правь статус, ####!111
Group Icon
Group: S-moderation team
Posts: 22,058
Releases: 1443
On Forums: 11 years 9 months
Thanks: 114601 time(s)
Unknown


Register


Go to the top of the page
  Insert nick Quick quote
+Quote Post

Reply to this topicStart new topic
2 User(s) are reading this topic (2 Guests and 0 Anonymous Users)
0 Members:

 



- Lo-Fi Version Support form
Copyrights and abuse reports form
Time is now: 3rd December 2022 - 17:11:43