Welcome Guest ( Log In | Register )

Объявления

* gmail.com упорно продолжает считать почту с нас "unsolicited" и отбивает в том числе и письма активации, поэтому просьба использовать альтернативные почтовые ящики.
------------
* gmail.com continues reject all mail from us as "unsolicited" (activation mails too) therefore please use alternate mail servers.
> Massive Repulsive - Sounds To Possess By [ep] (2013), Technical/Progressive Death Metal
post Jul 4 2013, 08:30:48
Post #1

Аннигилятор пивА
Group Icon
Group: V.I.P
Posts: 52,563
Releases: 16538
From: Koenigsberg - TILZIT
On Forums: 17 years 10 months
Thanks: 371848 time(s)
Russian Federation


(IMG:http://metalarea.org/images/audiocovers/2013_Jul/acov_tid204175_thumb.jpg)

*Artist: Massive Repulsive
*Album: Sounds To Possess By [ep]
*Year: 2013
*Genre: Technical/Progressive Death Metal
*Country: United States (IMG:http://metalarea.org/forum/style_images/flags/United%20States.png)
*Format: mp3@CBR320kbps
*Size: 61MB

Tracklist:
1. Sounds to Possess By 01:00
2. Immaculate Incubation 03:09
3. The Possessor (feat. Jared Sebastian) 04:26
4. Of the Mire 04:30
5. With Gods Like Men 04:35
6. Necrosexually Active 06:40
******************************
Total playing time: 24:20



Extended info
Отличная группа, энергичная и техничная, хорошо смазанная соляками и клавишными делами.
Massive Repulsive formed in January of 2012 with the intent of creating music with a constant state of urgency and technicality.
Fusing aspects of black metal, tradition death metal, technical death metal and jazz they strive to provide a heavy and unrelenting sound profile.

Truman Sayre - Keys/Vocals
Vito Spano - Bass
Zack Tharp - Guitar
Brandon Hoffman - Drums
Nicolas Woolley - Guitar


Technical info
(IMG:http://metalarea.org/images/spectrogram/2013_Jul/6decdd641fdf05001d151ed400b1c15d.png)
Input File: 02 Immaculate Incubation.mp3
Channels : 2
Sample Rate : 44100
Precision : 16-bit
Duration : 00:03:09.10 = 8339090 samples = 14182.1 CDDA sectors
File Size : 7.96M
Bit Rate : 337k
Sample Encoding: MPEG audio (layer I, II or III)
Comments :
Title=Immaculate Incubation
Artist=Massive Repulsive
Album=Sounds to Possess by
Tracknumber=2
Year=2013



Register


Go to the top of the page
  Insert nick Quick quote
+Quote Post
 
Start new topic
Replies (1 - 4)
post Jul 4 2013, 14:33:11
Post #2

Don't be negative.
**************
Group: Металариец
Posts: 2,964
Releases: 776
From: Earthmother
On Forums: 13 years 7 months
Thanks: 10554 time(s)
Ukraine


симфо дэткор
Go to the top of the page
  Insert nick Quick quote
+Quote Post
post Jul 4 2013, 14:33:47
Post #3

Brutal Orthodox
******
Group: Металариец
Posts: 658
Releases: 8
On Forums: 14 years 10 months
Thanks: 432 time(s)
Unknown


что то корных моментов дохера
Go to the top of the page
  Insert nick Quick quote
+Quote Post
post Jul 4 2013, 20:45:45
Post #4

Литр
*
Group: Подсевший
Posts: 69
Releases: 0
On Forums: 12 years 7 months
Thanks: 13 time(s)
Russian Federation




Thanks:
Go to the top of the page
  Insert nick Quick quote
+Quote Post
post Oct 31 2017, 13:04:30
Post #5

Правь статус, ####!111
**************
Group: Металариец
Posts: 2,286
Releases: 278
From: Omsk, Siberia
On Forums: 15 years 1 month
Thanks: 5879 time(s)
Russian Federation


320:
Register
Go to the top of the page
  Insert nick Quick quote
+Quote Post

Reply to this topicStart new topic
2 User(s) are reading this topic (2 Guests and 0 Anonymous Users)
0 Members:

 



- Lo-Fi Version Support form
Copyrights and abuse reports form
Time is now: 25th April 2024 - 14:45:07