Welcome Guest ( Log In | Register )

> И неформату есть предел.

Рэп/хип-хоп/шансон/поп удаляются. Для них есть свои порталы.

> Causa Sui - Free Ride (2007), Psychedelic/Stoner Rock
post Aug 19 2013, 12:49:59
Post #1

Пять Литров
*****
Group: Металариец
Posts: 491
Releases: 13
On Forums: 10 years 3 weeks
Thanks: 860 time(s)
Russian Federation


(IMG:http://metalarea.org/images/audiocovers/2013_Aug/acov_tid206681_thumb.jpg)

*Artist: Causa Sui
*Album: Free Ride
*Year: 2007
*Genre: Psychedelic/Stoner Rock
*Country: Denmark (IMG:http://metalarea.org/forum/style_images/flags/Denmark.png)
*Format: mp3@CBR320kbps
*Size: 106MB

Tracklist:
1. Free Ride 2:51
2. Lotus 7:50
3. White Sun 9:50
4. Passing Breeze 10:36
5. Top Of The Hill 4:06
6. Flowers Of Eventide 2:08
7. Newborn Road 15:01
******************************
Total playing time: 52:22

(IMG:http://metalarea.org/images/myspace.png)

Technical info
(IMG:http://metalarea.org/images/spectrogram/2013_Aug/7e03a36f9085cffd7b797103e3bc6c86.png)
Input File: 01 Free Ride.mp3
Channels : 2
Sample Rate : 44100
Precision : 16-bit
Duration : 00:02:51.00 = 7541100 samples = 12825 CDDA sectors
File Size : 6.87M
Bit Rate : 321k
Sample Encoding: MPEG audio (layer I, II or III)
Comments :
Title=Free Ride
Artist=Causa Sui
Album=Free Ride
Tracknumber=1
Genre=17



Register


Thanks:
(2) qpMM, VALERY,
Go to the top of the page
  Insert nick Quick quote
+Quote Post
 
Start new topic
Replies (1 - 1)
post Apr 17 2016, 01:56:25
Post #2

Going home. Flying high.
**************
Group: Металариец
Posts: 13,055
Releases: 0
From: The Land of Shadows
On Forums: 14 years 1 month
Thanks: 24856 time(s)
Russian Federation


from the web
Register


Thanks:
(1) Spunkynut,
Go to the top of the page
  Insert nick Quick quote
+Quote Post

Reply to this topicStart new topic
1 User(s) are reading this topic (1 Guests and 0 Anonymous Users)
0 Members:

 



- Lo-Fi Version Support form
Copyrights and abuse reports form
Time is now: 20th September 2020 - 08:31:02