Welcome Guest ( Log In | Register )

> 

Здесь релизы с живыми прямыми ссылками на lossless

> Avernum Whispers - Beyond The River Of Laments (2013), Epic Black/Doom Metal
post Aug 24 2013, 17:06:04
Post #1

Правь статус, ####!111
**************
Group: Металариец
Posts: 2,286
Releases: 1008
From: Гиперборе́я
On Forums: 9 years 7 months
Thanks: 21714 time(s)
Russian Federation


(IMG:http://metalarea.org/images/audiocovers/2013_Aug/acov_tid207040_thumb.jpg)

*Artist: Avernum Whispers
*Album: Beyond The River Of Laments
*Year: 2013
*Genre: Epic Black/Doom Metal
*Country: Italy (IMG:http://metalarea.org/forum/style_images/flags/Italy.png)
*Format: mp3@CBR320kbps
*Size: 90MB

Tracklist:
01. Into The Chaos Of Hell 00:54
02. Prometheus (Thief Of The Divine Fire) 05:14
03. Horrible Eye Of Metis 05:04
04. Dreaming Through the Shadows 05:32
05. The Eternal Suffering 03:32
06. Beyond The River Of Laments 05:34
07. Sad Wife Of The Horned God (Persefone's Damnation) 04:40
08. My Black Rain On The Land Of Thanatos 05:30
09. Great Blessing Of Damnation 04:32
******************************
Total playing time: 40:32



(IMG:http://metalarea.org/images/youtube.png)

Technical info
(IMG:http://metalarea.org/images/spectrogram/2013_Aug/ff280d62aa895238f9f40410b1bca5b3.png)
Input File: 01 - Into The Chaos Of Hell.mp3
Channels : 2
Sample Rate : 44100
Precision : 16-bit
Duration : 00:00:55.00 = 2425324 samples = 4124.7 CDDA sectors
File Size : 2.22M
Bit Rate : 323k
Sample Encoding: MPEG audio (layer I, II or III)
Comments :
Title=Into The Chaos Of Hell
Artist=Avernum Whispers
Album=Beyond The River Of Laments
Tracknumber=01/09
Year=2013
Genre=Epic Black/Doom Metal



Register


Go to the top of the page
  Insert nick Quick quote
+Quote Post
 
Start new topic
Replies (1 - 2)
post Oct 6 2019, 11:07:32
Post #2

Forever Underground
**************
Group: Металариец
Posts: 7,071
Releases: 0
On Forums: 5 years 2 months
Thanks: 8969 time(s)
Unknown


Need a mirror (new & working!) link, please... thanks in advance!! (IMG:style_emoticons/default/9.gif)
Go to the top of the page
  Insert nick Quick quote
+Quote Post
post Oct 6 2019, 11:28:33
Post #3

Group Icon
Group: S-moderation team
Posts: 15,686
Releases: 1440
From: Zagreb
On Forums: 9 years 4 months
Thanks: 70417 time(s)
Croatia


Register

Register


Go to the top of the page
  Insert nick Quick quote
+Quote Post

Reply to this topicStart new topic
1 User(s) are reading this topic (1 Guests and 0 Anonymous Users)
0 Members:

 



- Lo-Fi Version Support form
Copyrights and abuse reports form
Time is now: 4th July 2020 - 13:11:16