Welcome Guest ( Log In | Register )

> Captain Cleanoff & War Of The Second Dragon - Captain Cleanoff/War Of The Second Dragon [split] (2013), Grindcore | Grindcore (D5)
post Aug 27 2013, 15:53:48
Post #1

Serial Uploader
Group Icon
Group: V.I.P
Posts: 42,367
Releases: 40437
From: Lithuania
On Forums: 15 years 10 months
Thanks: 516441 time(s)
Lithuania


(IMG:http://metalarea.org/images/audiocovers/2013_Aug/acov_tid207237_thumb.jpg)

*Artist: Captain Cleanoff & War Of The Second Dragon
*Album: Captain Cleanoff/War Of The Second Dragon [split]
*Year: 2013
*Genre: Grindcore | Grindcore
*Country: Australia (IMG:http://metalarea.org/forum/style_images/flags/Australia.png) | United Kingdom (IMG:http://metalarea.org/forum/style_images/flags/United%20Kingdom.png)
*Format: mp3@CBR320kbps
*Size: 40MB

Tracklist:
Captain Cleanoff:
01. It's Happening Again 00:59
02. John 01:49
03. Fly The Friendly Skies (Righteous Pigs Cover) 01:42
War Of The Second Dragon:
04. Strike The Anvil (Of Mental Stagnation) 01:43
05. Monoliths 01:36
06. The Stench Of Death 01:55
******************************
Total playing time: 9:44

(IMG:http://metalarea.org/images/myspace.png)
(IMG:http://metalarea.org/images/myspace.png)


Technical info
(IMG:http://metalarea.org/images/spectrogram/2013_Aug/3b4721bd68e084c00d95967fa3edf4f5.png)
Input File: 02. John.mp3
Channels : 2
Sample Rate : 44100
Precision : 16-bit
Duration : 00:01:49.64 = 4835036 samples = 8222.85 CDDA sectors
File Size : 6.18M
Bit Rate : 451k
Sample Encoding: MPEG audio (layer I, II or III)
Comments :
Title=John
Artist=Captain Cleanoff
Album=Captain Cleanoff / War Of The Second Dragon
Tracknumber=2
Year=2013
Genre=Grindcore



Register


Go to the top of the page
  Insert nick Quick quote
+Quote Post
 
Start new topic
Replies (1 - 4)
post Aug 27 2013, 18:30:07
Post #2

Социопат.Маргинал. Мизантроп.Нигилист. Перверзный нарциссист.
**************
Group: Металариец
Posts: 5,571
Releases: 666
From: Город-герой Ленинград
On Forums: 13 years 2 months
Thanks: 6549 time(s)
Russian Federation


..зачетный сплит (IMG:style_emoticons/default/banana.gif)
Go to the top of the page
  Insert nick Quick quote
+Quote Post
post Jan 23 2019, 05:59:14
Post #3

Литр
*
Group: Подсевший
Posts: 86
Releases: 0
From: Austin Texas
On Forums: 5 years 7 months
Thanks: 57 time(s)
United States


Can anybody re-upload this?
Go to the top of the page
  Insert nick Quick quote
+Quote Post
post Jan 23 2019, 15:30:16
Post #4

Правь статус, ####!111
Group Icon
Group: S-moderation team
Posts: 22,058
Releases: 1443
On Forums: 13 years 1 month
Thanks: 127117 time(s)
Unknown


Register


Go to the top of the page
  Insert nick Quick quote
+Quote Post
post Apr 2 2024, 21:54:14
Post #5

Black Death Grind Madness
*******
Group: Металариец
Posts: 710
Releases: 0
From: Cassilandia
On Forums: 15 years 9 months
Thanks: 83 time(s)
Brazil


QUOTE(Borderline1991 @ Jan 23 2019, 17:30:16) *

(IMG:style_emoticons/default/9.gif) (IMG:style_emoticons/default/pray.gif)
Go to the top of the page
  Insert nick Quick quote
+Quote Post

Reply to this topicStart new topic
2 User(s) are reading this topic (2 Guests and 0 Anonymous Users)
0 Members:

 



- Lo-Fi Version Support form
Copyrights and abuse reports form
Time is now: 16th April 2024 - 09:30:51