Welcome Guest ( Log In | Register )

> И неформату есть предел.

Рэп/хип-хоп/шансон/поп удаляются. Для них есть свои порталы.

> Black Spiders - This Savage Land (2013), Stoner/Hard Rock
post Sep 2 2013, 19:27:52
Post #1

Thrash, Beer & Violence
**************
Group: Металариец
Posts: 5,503
Releases: 2771
From: Крестов Брод (Russland)
On Forums: 16 years 2 months
Thanks: 41181 time(s)
Russian Federation


(IMG:http://metalarea.org/images/audiocovers/2013_Sep/acov_tid207620_thumb.jpg)

*Artist: Black Spiders
*Album: This Savage Land
*Year: 2013
*Genre: Stoner/Hard Rock
*Country: United Kingdom (IMG:http://metalarea.org/forum/style_images/flags/United%20Kingdom.png)
*Format: mp3@CBR320kbps
*Size: 101MB

Tracklist:
01. Knock You Out 03:27
02. Stick it to the Man 02:41
03. Balls 04:44
04. Young Tongues 03:13
05. Put Love In Its Place 06:35
06. Raised By Wolves 04:17
07. Trouble 04:16
08. Teenage Knife Gang 03:08
09. Creatures 05:29
10. Sleepy Demon 06:21
******************************
Total playing time: 44:11

HomePage
(IMG:http://metalarea.org/images/youtube.png)

Extended info


Technical info
(IMG:http://metalarea.org/images/spectrogram/2013_Sep/116c754851d8c888126833972e8ec535.png)
Input File: 01. Knock You Out.mp3
Channels : 2
Sample Rate : 44100
Precision : 16-bit
Duration : 00:03:26.83 = 9121335 samples = 15512.5 CDDA sectors
File Size : 8.27M
Bit Rate : 320k
Sample Encoding: MPEG audio (layer I, II or III)
Comments :
Title=Knock You Out
Artist=Black Spiders
Album=This Savage Land
Tracknumber=01/10
Year=2013
Genre=rock
Discnumber=1/1



Register


Go to the top of the page
  Insert nick Quick quote
+Quote Post
 
Start new topic
Replies (1 - 2)
post Sep 4 2013, 18:58:12
Post #2

South Of Heaven /адепт ВУДУ
**************
Group: Металариец
Posts: 13,960
Releases: 9
On Forums: 13 years 8 months
Thanks: 5672 time(s)
Unknown


Классный хард рок, в лучших традициях стиля.


Thanks:
(1) metadeat,
Go to the top of the page
  Insert nick Quick quote
+Quote Post
post Sep 7 2013, 17:49:54
Post #3

Статус-хиатус
**************
Group: Металариец
Posts: 2,645
Releases: 7
From: гости
On Forums: 16 years 2 months
Thanks: 1111 time(s)
Ukraine


Заводная музыка (IMG:style_emoticons/default/banana.gif) Хард рок, который чуть-чуть посыпан стоунером.


Thanks:
(1) metadeat,
Go to the top of the page
  Insert nick Quick quote
+Quote Post

Reply to this topicStart new topic
2 User(s) are reading this topic (2 Guests and 0 Anonymous Users)
0 Members:

 



- Lo-Fi Version Support form
Copyrights and abuse reports form
Time is now: 9th December 2023 - 15:43:23