Welcome Guest ( Log In | Register )

> Midget Fetish - A Short Time Later [best of/compilation] (2013), Grindcore
post Sep 9 2013, 13:25:05
Post #1

Serial Uploader
Group Icon
Group: V.I.P
Posts: 37,707
Releases: 35874
From: Lithuania
On Forums: 13 years 4 months
Thanks: 435252 time(s)
Lithuania


(IMG:http://metalarea.org/images/audiocovers/2013_Sep/acov_tid208023_thumb.jpg)

*Artist: Midget Fetish
*Album: A Short Time Later [best of/compilation]
*Year: 2013
*Genre: Grindcore
*Country: Australia (IMG:http://metalarea.org/forum/style_images/flags/Australia.png)
*Format: mp3@CBR320kbps
*Size: 74MB

Tracklist:
01. Midget Madness 02:34
02. Society For Cutting-Up Men 00:58
03. Pound For Pound 01:33
04. Painted Face Club 01:48
05. Fenime And Bengt 01:04
06. Seek And Destroy Rockstars 00:34
07. Estridencias Radio Outro 01:09
08. Evil Eric 01:44
09. Suffocate On This (Festering Puke Cover) 00:36
10. Pound For Pound 01:48
11. Man's Domain 01:35
12. Satan Is My Saviour (Bloodied Altar Mix) 02:16
13. Cock Rock 01:48
14. Delusions Of Grandeur 04:01
15. Society For Cutting-Up Men 01:02
16. Fenime And Bengt 01:08
17. Squat To Piss 01:13
18. Teenage Fantasy 01:49
******************************
Total playing time: 28:40


(IMG:http://metalarea.org/images/youtube.png)

Technical info
(IMG:http://metalarea.org/images/spectrogram/2013_Sep/84b3320b261b9157444e65f2ff58a2a1.png)
Input File: 14. Delusions Of Grandeur.mp3
Channels : 2
Sample Rate : 44100
Precision : 16-bit
Duration : 00:04:01.05 = 10630481 samples = 18079 CDDA sectors
File Size : 9.77M
Bit Rate : 324k
Sample Encoding: MPEG audio (layer I, II or III)
Comments :
Title=Delusions Of Grandeur
Artist=Midget Fetish
Album=A Short Time Later
Tracknumber=14
Year=2013



Register


Go to the top of the page
  Insert nick Quick quote
+Quote Post
 
Start new topic
Replies (1 - 1)
post Sep 9 2013, 21:49:06
Post #2

Два Литра
**
Group: Завсегдатай
Posts: 167
Releases: 0
From: Belo Horizonte
On Forums: 10 years 6 months
Thanks: 45 time(s)
Brazil


Thanks!
OBS: They are from Australia...


Thanks:
(1) necroscum,
Go to the top of the page
  Insert nick Quick quote
+Quote Post

Reply to this topicStart new topic
1 User(s) are reading this topic (1 Guests and 0 Anonymous Users)
0 Members:

 



- Lo-Fi Version Support form
Copyrights and abuse reports form
Time is now: 28th October 2021 - 22:17:39