Welcome Guest ( Log In | Register )

> И неформату есть предел.

Рэп/хип-хоп/шансон/поп удаляются. Для них есть свои порталы.

> Sound Of Contact - Dimensionaut (2013), Progressive Rock/Fusion
frost192
post Sep 14 2013, 15:18:36
Post #1

Guests team






(IMG:http://metalarea.org/images/audiocovers/2013_Sep/acov_tid208349_thumb.jpg)

*Artist: Sound Of Contact
*Album: Dimensionaut
*Year: 2013
*Genre: Art Rock/Progressive Rock
*Country: United States (IMG:http://metalarea.org/forum/style_images/flags/United%20States.png)
*Format: mp3@CBR320kbps
*Size: 171MB

Tracklist:
01. Sound Of Contact 02:05
02. Cosmic Distance Ladder 04:43
03. Pale Blue Dot 04:44
04. I Am Dimensionaut 06:25
05. Not Comming Down 06:01
06. Remote View 03:54
07. Beyond Illumination 05:53
08. Only Breathing Out 05:57
09. Realm Of In-Organic Beings 02:52
10. Closer To You 05:05
11. Omega Point 06:30
12. Mobius Slip 19:36
12. Part One: In The Difference Engine
12. Part Two: Perihelion Continuum
12. Part Three: Salvation Found
12. Part Four: All Worlds All Times"
******************************
Total playing time: 1:13:45

Extended info
Simon Collins - vocals, drums
Dave Kerzner - keyboards, backing vocals
Kelly Nordstrom - guitar, bass
Matt Dorsey - guitar, bass, backing vocals

Additional personnel
Hannah Stobart - vocals
Wells Cunningham - cello

Simon Collins - сын того самого Фила Коллинза !!!
Красивый арт-рок с элементами прогрессива в духе двух последних работ Genesis.


Technical info
(IMG:http://metalarea.org/images/spectrogram/2013_Sep/c3294191abdaded7d6cb308ff0a50585.png)
Input File: 02. Cosmic Distance Ladder.mp3
Channels : 2
Sample Rate : 44100
Precision : 16-bit
Duration : 00:04:43.54 = 12503938 samples = 21265.2 CDDA sectors
File Size : 11.4M
Bit Rate : 321k
Sample Encoding: MPEG audio (layer I, II or III)
Comments :
Title=Cosmic Distance Ladder
Artist=Sound Of Contact
Album=Dimensionaut
Tracknumber=2
Year=2013
Genre=Progressive Rock



Register


Go to the top of the page
  Insert nick Quick quote
+Quote Post
 
Start new topic
Replies (1 - 3)
frost192
post Sep 14 2013, 18:26:10
Post #2

Guests team






Прослушал уже раз 5 наверное!
Шикарная вещь однако!
Чувствуется папино семя (IMG:style_emoticons/default/1488.gif)
Go to the top of the page
  Insert nick Quick quote
+Quote Post
post Oct 3 2013, 19:18:35
Post #3

Статус-хиатус
**************
Group: Металариец
Posts: 2,640
Releases: 7
From: гости
On Forums: 12 years 6 months
Thanks: 1082 time(s)
Ukraine




Thanks:
Go to the top of the page
  Insert nick Quick quote
+Quote Post
post Feb 7 2020, 17:05:08
Post #4


Group Icon
Group: S-moderation team
Posts: 14,755
Releases: 1440
From: Zagreb
On Forums: 9 years 1 month
Thanks: 64644 time(s)
Croatia


Register
Register
Register


Thanks:
Go to the top of the page
  Insert nick Quick quote
+Quote Post

Reply to this topicStart new topic
1 User(s) are reading this topic (1 Guests and 0 Anonymous Users)
0 Members:

 



- Lo-Fi Version Support form
Copyrights and abuse reports form
Time is now: 28th March 2020 - 19:01:54