Welcome Guest ( Log In | Register )

Объявления

* gmail.com упорно продолжает считать почту с нас "unsolicited" и отбивает в том числе и письма активации, поэтому просьба использовать альтернативные почтовые ящики.
------------
* gmail.com continues reject all mail from us as "unsolicited" (activation mails too) therefore please use alternate mail servers.
> Spreading Hate - Hatecomming (2013), Melodic Death Metal
post Oct 18 2013, 11:36:16
Post #1

Serial Uploader
Group Icon
Group: V.I.P
Posts: 42,802
Releases: 40865
From: Lithuania
On Forums: 16 years 2 weeks
Thanks: 524258 time(s)
Lithuania


(IMG:http://metalarea.org/images/audiocovers/2013_Oct/acov_tid210618_thumb.jpg)

*Artist: Spreading Hate
*Album: Hatecomming
*Year: 2013
*Genre: Melodic Death Metal
*Country: Brazil (IMG:http://metalarea.org/forum/style_images/flags/Brazil.png)
*Format: mp3@CBR320kbps
*Size: 103MB

Tracklist:
01. Lighted 03:02
02. Hollowdead 05:36
03. Infernal Nightmare 03:53
04. Cold And Pale 03:59
05. Infection 04:00
06. Anesthesia 03:55
07. Rise 05:12
08. Hatecomming 04:19
09. Subterranean Palace 03:52
******************************
Total playing time: 37:48

(IMG:http://metalarea.org/images/myspace.png)


Technical info
(IMG:http://metalarea.org/images/spectrogram/2013_Oct/2f7a3c1885a395fc619c57937fab0bdb.png)
Input File: 02. Hollowdead.mp3
Channels : 2
Sample Rate : 44100
Precision : 16-bit
Duration : 00:05:36.73 = 14849617 samples = 25254.5 CDDA sectors
File Size : 14.8M
Bit Rate : 351k
Sample Encoding: MPEG audio (layer I, II or III)
Comments :
Title=Hollowdead
Artist=Spreading Hate
Album=Hatecomming
Tracknumber=2/9
Year=2013



Register


Go to the top of the page
  Insert nick Quick quote
+Quote Post
 
Start new topic
Replies (1 - 9)
post Oct 18 2013, 12:36:36
Post #2

Восемь Литров
********
Group: Металариец
Posts: 811
Releases: 94
On Forums: 12 years 7 months
Thanks: 2674 time(s)
Canada


Register


Thanks:
(1) Aresson,
Go to the top of the page
  Insert nick Quick quote
+Quote Post
post Oct 21 2013, 08:26:56
Post #3

Ъ
**************
Group: Металариец
Posts: 11,214
Releases: 9
On Forums: 15 years 5 months
Thanks: 2278 time(s)
Sweden


Неплохой второсорт, пару раз послушать можно, но только с голодухи. шифт+дел
Go to the top of the page
  Insert nick Quick quote
+Quote Post
post Oct 26 2013, 11:15:40
Post #4

Два Литра
**
Group: Завсегдатай
Posts: 163
Releases: 3
From: Питер
On Forums: 15 years 9 months
Thanks: 59 time(s)
Russian Federation


Мощь!! Дефицитный канонический МДМ без акцента!!
Go to the top of the page
  Insert nick Quick quote
+Quote Post
post Nov 12 2013, 19:20:18
Post #5

Два Литра
**
Group: Завсегдатай
Posts: 130
Releases: 0
From: Москва
On Forums: 18 years 3 months
Thanks: 24 time(s)
Russian Federation


Ну и как вас понять, друзья?
Go to the top of the page
  Insert nick Quick quote
+Quote Post
post Nov 10 2014, 14:57:14
Post #6

but I'm white and furry
***********
Group: Металариец
Posts: 1,637
Releases: 541
From: Москва
On Forums: 18 years 4 months
Thanks: 7869 time(s)
Russian Federation


Класс! Мощно и мелодично! Очень понравился альбом.
Go to the top of the page
  Insert nick Quick quote
+Quote Post
post Sep 10 2017, 08:33:10
Post #7

MDM-Thrash Metal
**************
Group: Металариец
Posts: 12,497
Releases: 1745
From: Одесса
On Forums: 16 years 10 months
Thanks: 40509 time(s)
Ukraine


Неплохой альбом, с закосом под фиников.

320, 97 Mb:

Register



https://www.youtube.com/watch?v=N-Tklqf1hSk
https://www.youtube.com/watch?v=IMIZ_l-6Ag4
https://www.youtube.com/watch?v=wgwx-CKoZvU
https://www.youtube.com/watch?v=HLZWDY2_R6k




Go to the top of the page
  Insert nick Quick quote
+Quote Post
post Sep 11 2017, 21:44:24
Post #8
BAN
Banned till
May 24 2024, 17:39:45



ЦИТАТА(Andrew @ Sep 10 2017, 10:33:10) *

В этот раз подборка по Латинской Америке... Этнографично, надо зачекать
Go to the top of the page
  Insert nick Quick quote
+Quote Post
post Sep 14 2017, 20:31:34
Post #9

Два Литра
**
Group: Завсегдатай
Posts: 133
Releases: 1
On Forums: 12 years 3 months
Thanks: 81 time(s)
Russian Federation


Нереально порадовало, прям каждый трек в десятку! Вообще 2013й год был просто очешуительным для мдма.


Thanks:
(1) Andrew,
Go to the top of the page
  Insert nick Quick quote
+Quote Post
post Sep 16 2017, 17:36:57
Post #10

Да прибудет с Вами сила Z
**************
Group: Металариец
Posts: 20,438
Releases: 26
On Forums: 15 years 11 months
Thanks: 11687 time(s)
Russian Federation


Не стояла бы страна - Шведы хоть ты тресни.Даже мне, не особому почитателю данного стиля, альбом понравился.


Thanks:
(1) Andrew,
Go to the top of the page
  Insert nick Quick quote
+Quote Post

Reply to this topicStart new topic
2 User(s) are reading this topic (2 Guests and 0 Anonymous Users)
0 Members:

 



- Lo-Fi Version Support form
Copyrights and abuse reports form
Time is now: 21st June 2024 - 08:04:56