Welcome Guest ( Log In | Register )

Объявления

* gmail.com упорно продолжает считать почту с нас "unsolicited" и отбивает в том числе и письма активации, поэтому просьба использовать альтернативные почтовые ящики.
------------
* gmail.com continues reject all mail from us as "unsolicited" (activation mails too) therefore please use alternate mail servers.
> Epyon - Until The Stars Burn Cold (2013), Progressive/Thrash Metal
post Oct 21 2013, 11:42:04
Post #1

Правь статус, ####!111
**************
Group: Металариец
Posts: 36,216
Releases: 27002
From: Г.Харьков
On Forums: 12 years 1 month
Thanks: 586712 time(s)
Ukraine


(IMG:http://metalarea.org/images/audiocovers/2013_Oct/acov_tid210815_thumb.jpg)

*Artist: Epyon
*Album: Until The Stars Burn Cold
*Year: 2013
*Genre: Progressive/Thrash Metal
*Country: United States (IMG:http://metalarea.org/forum/style_images/flags/United%20States.png)
*Format: mp3@CBR320kbps
*Size: 108MB

Tracklist:
01.The Epyon 01:44
02.Order of the Zodiac 04:08
03.The Endless Waltz 05:10
04.The Tombs of Minas Morgul 03:37
05.Big Hairy Elephant 05:45
06.The Faceless Man 06:34
07.The Doctor,Who? 05:54
08.The Girl Who Waited 02:31
09.The Last Son of Gallifrey 07:32
10.Ode to Black 03:34
******************************
Total playing time: 46:29



Technical info
(IMG:http://metalarea.org/images/spectrogram/2013_Oct/48d58d337a8d9f78f650955f31de4879.png)
Input File: Epyon - Until the Stars Burn Cold - 01 The Epyon.mp3
Channels : 2
Sample Rate : 44100
Precision : 16-bit
Duration : 00:01:44.08 = 4589972 samples = 7806.07 CDDA sectors
File Size : 4.40M
Bit Rate : 338k
Sample Encoding: MPEG audio (layer I, II or III)
Comments :
Title=The Epyon
Artist=Epyon
Album=Until the Stars Burn Cold
Tracknumber=1
Year=2013



Register


Go to the top of the page
  Insert nick Quick quote
+Quote Post
 
Start new topic
Replies (1 - 4)
post Oct 21 2013, 12:43:07
Post #2

Восемь Литров
********
Group: Металариец
Posts: 811
Releases: 94
On Forums: 12 years 7 months
Thanks: 2674 time(s)
Canada


"The Endless Waltz" (IMG:style_emoticons/default/metaler.gif) (IMG:style_emoticons/default/metaler.gif) (IMG:style_emoticons/default/metaler.gif)


Highly skilled musicians! Recommended for all thrash fans with super solos! \m/


Thanks:
(2) Diflock, Yarri,
Go to the top of the page
  Insert nick Quick quote
+Quote Post
post Oct 21 2013, 13:22:57
Post #3

К = 8,29
**************
Group: Металариец
Posts: 6,231
Releases: 17
From: Минск
On Forums: 15 years 5 months
Thanks: 5627 time(s)
Belarus


Трушный звучок заманивает. Но подобная стилистическая скупость и аскеза у меня нынче не в фаворе, так что может бэндкэмп дослушаю, а может и нет.
Go to the top of the page
  Insert nick Quick quote
+Quote Post
post Oct 21 2013, 13:49:34
Post #4

21st Century Schizoid Man
**************
Group: Металариец
Posts: 8,509
Releases: 336
From: 1984
On Forums: 16 years 1 month
Thanks: 9581 time(s)
Unknown


Дослушиваю бэндкампе - кайфово. Простоватый вокал, но в принципе можно привыкнуть. Зато музон в целом очень зачётный.


Thanks:
(1) Diflock,
Go to the top of the page
  Insert nick Quick quote
+Quote Post
post Oct 21 2013, 14:30:23
Post #5

Семь Литров
*******
Group: Металариец
Posts: 745
Releases: 9
From: Симферополь (Крым)
On Forums: 17 years 8 months
Thanks: 473 time(s)
Ukraine


звук как из [мат->бан]ы, да и прогрессив за уши притянули, такой себе олдскульчик да и все.
Go to the top of the page
  Insert nick Quick quote
+Quote Post

Reply to this topicStart new topic
2 User(s) are reading this topic (2 Guests and 0 Anonymous Users)
0 Members:

 



- Lo-Fi Version Support form
Copyrights and abuse reports form
Time is now: 21st June 2024 - 08:35:12