Welcome Guest ( Log In | Register )

> 

Здесь релизы с живыми прямыми ссылками на lossless

> Holland - Little Monsters (1985), Hard Rock/Heavy Metal
post Oct 21 2013, 17:34:07
Post #1

Thrash, Beer & Violence
**************
Group: Металариец
Posts: 5,503
Releases: 2772
From: Крестов Брод (Russland)
On Forums: 12 years 5 months
Thanks: 40329 time(s)
Russian Federation


(IMG:http://metalarea.org/images/audiocovers/2013_Oct/acov_tid210845_thumb.jpg)

*Artist: Holland
*Album: Little Monsters
*Year: 1985
*Genre: Hard Rock/Heavy Metal
*Country: United States (IMG:http://metalarea.org/forum/style_images/flags/United%20States.png)
*Format: mp3@CBR320kbps
*Size: 80MB

Tracklist:
1. Love in on Time 03:22
2. High Life 03:50
3. Middle of a Dream 03:31
4. Border Line 03:07
5. Wake Up the Neighbourhood 03:38
6. Sacrifice 03:36
7. Gotta Run 03:26
8. Basics of the Bullet 03:23
9. Keep It to Yourself 03:18
10. I Want It 03:28
******************************
Total playing time: 34:39

ПРЕВЬЮ

Technical info
(IMG:http://metalarea.org/images/spectrogram/2013_Oct/5fc0695cf2e9616019feb52160eaf444.png)
Input File: Holland - Little Monsters - 01 - Love In On Time.mp3
Channels : 2
Sample Rate : 44100
Precision : 16-bit
Duration : 00:03:22.36 = 8924164 samples = 15177.1 CDDA sectors
File Size : 8.09M
Bit Rate : 320k
Sample Encoding: MPEG audio (layer I, II or III)
Comments :
Title=Love In On Time
Artist=Holland
Album=Little Monsters
Tracknumber=1
Year=1885
Genre=9



Register


Go to the top of the page
  Insert nick Quick quote
+Quote Post
 
Start new topic
Replies (1 - 2)
post Mar 8 2020, 07:40:45
Post #2

•ÅÜÐÏØŅĂÛŦ•
******
Group: Металариец
Posts: 576
Releases: 13
From: The Great Chelyabinsk City
On Forums: 12 years 2 months
Thanks: 214 time(s)
Russian Federation


Re-up, please!
Go to the top of the page
  Insert nick Quick quote
+Quote Post
post Mar 8 2020, 08:44:32
Post #3


Group Icon
Group: S-moderation team
Posts: 14,859
Releases: 1440
From: Zagreb
On Forums: 9 years 1 month
Thanks: 65168 time(s)
Croatia


Register
Register


Go to the top of the page
  Insert nick Quick quote
+Quote Post

Reply to this topicStart new topic
1 User(s) are reading this topic (1 Guests and 0 Anonymous Users)
0 Members:

 



- Lo-Fi Version Support form
Copyrights and abuse reports form
Time is now: 3rd April 2020 - 23:48:21