Welcome Guest ( Log In | Register )

Объявления

* gmail.com упорно продолжает считать почту с нас "unsolicited" и отбивает в том числе и письма активации, поэтому просьба использовать альтернативные почтовые ящики.
------------
* gmail.com continues reject all mail from us as "unsolicited" (activation mails too) therefore please use alternate mail servers.
> Otoño - Something Metal This Way Comes (2013), Melodic Death/Black Metal (D4)
post Oct 23 2013, 08:52:35
Post #1

Serial Uploader
Group Icon
Group: V.I.P
Posts: 42,802
Releases: 40865
From: Lithuania
On Forums: 16 years 2 weeks
Thanks: 524267 time(s)
Lithuania


(IMG:http://metalarea.org/images/audiocovers/2013_Oct/acov_tid210919_thumb.jpg)

*Artist: Otoño
*Album: Something Metal This Way Comes
*Year: 2013
*Genre: Melodic Death/Black Metal
*Country: United States (IMG:http://metalarea.org/forum/style_images/flags/United%20States.png)
*Format: mp3@CBR320kbps
*Size: 157MB

Tracklist:
01. Intro (This Is Halloween) 02:24
02. The Lament Configuration 08:21
03. Black No.1 08:54
04. The Book Of The Dead 10:30
05. Ghostbusters 03:16
06. Master Of Dreams 08:28
07. Room 237 10:16
08. Phantom Of The Opera (Instrumental) 05:30
09. Outro (The Exorcist) 08:24
******************************
Total playing time: 1:06:03



Technical info
(IMG:http://metalarea.org/images/spectrogram/2013_Oct/f2acc29dfb80f482cc7a08f4e9d553c7.png)
Input File: 02. The Lament Configuration.mp3
Channels : 2
Sample Rate : 44100
Precision : 16-bit
Duration : 00:08:52.06 = 23463802 samples = 39904.4 CDDA sectors
File Size : 21.4M
Bit Rate : 321k
Sample Encoding: MPEG audio (layer I, II or III)
Comments :
Title=The Lament Configuration
Artist=OtoГ±o
Album=Something Metal This Way Comes
Tracknumber=2
Year=2013



Register


Go to the top of the page
  Insert nick Quick quote
+Quote Post
 
Start new topic
Replies (1 - 1)
post Oct 23 2013, 11:56:31
Post #2

Восемь Литров
********
Group: Металариец
Posts: 811
Releases: 94
On Forums: 12 years 7 months
Thanks: 2674 time(s)
Canada


Register


Thanks:
Go to the top of the page
  Insert nick Quick quote
+Quote Post

Reply to this topicStart new topic
2 User(s) are reading this topic (2 Guests and 0 Anonymous Users)
0 Members:

 



- Lo-Fi Version Support form
Copyrights and abuse reports form
Time is now: 21st June 2024 - 09:33:36