Welcome Guest ( Log In | Register )

> In Autumn - Reborn (2013), Progressive Dark/Doom Metal
post Oct 23 2013, 19:35:42
Post #1

Аннигилятор пивА
Group Icon
Group: V.I.P
Posts: 52,369
Releases: 16546
From: Koenigsberg - TILZIT
On Forums: 16 years 1 month
Thanks: 369557 time(s)
Russian Federation


(IMG:http://metalarea.org/images/audiocovers/2013_Oct/acov_tid210958_thumb.jpg)

*Artist: In Autumn
*Album: Reborn
*Year: 2013
*Genre: Progressive Dark/Doom Metal
*Country: Italy (IMG:http://metalarea.org/forum/style_images/flags/Italy.png)
*Format: mp3@CBR320kbps
*Size: 126MB

Tracklist:
01. Mind and Beast
02. Draw On the Mirror
03. Rust
04. Silent Watchers
05. Elevation
06. Reborn
07. Uno Sguardo Verso Il Cielo
08. The Thin Line
09. Circles in the Water
******************************
Total playing time: 53:00




Extended info
In Autumn born in June 2011 with the intention to revisit a post-doom metal, trying to capture the essence of bands like Katatonia, Opeth and Ghost Brigade.

Alessandro Barci | vocals
Cristian Barocco | guitar | synt
Diego Polato | bass
Paolo Marasca | guitar
Marco "Cuzzo" Liotto | drums


Technical info
(IMG:http://metalarea.org/images/spectrogram/2013_Oct/9d1c0b80479e24a7bd02de9722498e14.png)
Input File: 02. Draw On the Mirror.mp3
Channels : 2
Sample Rate : 44100
Precision : 16-bit
Duration : 00:06:36.11 = 17468363 samples = 29708.1 CDDA sectors
File Size : 15.8M
Bit Rate : 320k
Sample Encoding: MPEG audio (layer I, II or III)
Comments :
Title=Draw On the Mirror
Artist=In Autumn
Album=Reborn
Tracknumber=2/9
Year=2013



Register


Go to the top of the page
  Insert nick Quick quote
+Quote Post
 
Start new topic
Replies (1 - 3)
post Oct 25 2013, 19:59:45
Post #2

Маньяк
**********
Group: Металариец
Posts: 1,228
Releases: 101
From: 56°24′00″ с. ш. 61°56′00″ в. д.
On Forums: 15 years 6 months
Thanks: 2248 time(s)
Russian Federation


Безусловно, серьёзная работа.
Go to the top of the page
  Insert nick Quick quote
+Quote Post
post Nov 12 2018, 06:16:35
Post #3

Аннигилятор пивА
Group Icon
Group: V.I.P
Posts: 52,369
Releases: 16546
From: Koenigsberg - TILZIT
On Forums: 16 years 1 month
Thanks: 369557 time(s)
Russian Federation


MIRROR
Register
Go to the top of the page
  Insert nick Quick quote
+Quote Post
post Jun 23 2022, 09:30:13
Post #4

Правь статус, ####!111
**************
Group: Металариец
Posts: 2,115
Releases: 265
From: Omsk, Siberia
On Forums: 13 years 3 months
Thanks: 5250 time(s)
Russian Federation


plz re-up! (IMG:style_emoticons/default/pray.gif)
Go to the top of the page
  Insert nick Quick quote
+Quote Post

Reply to this topicStart new topic
2 User(s) are reading this topic (2 Guests and 0 Anonymous Users)
0 Members:

 



- Lo-Fi Version Support form
Copyrights and abuse reports form
Time is now: 6th July 2022 - 17:07:37