Welcome Guest ( Log In | Register )

> Guttural Slug - Atrocities [single] (2013), Brutal Death Metal
post Oct 25 2013, 10:06:21
Post #1

Serial Uploader
Group Icon
Group: V.I.P
Posts: 37,601
Releases: 35773
From: Lithuania
On Forums: 13 years 5 days
Thanks: 432751 time(s)
Lithuania


(IMG:http://metalarea.org/images/audiocovers/2013_Oct/acov_tid211051_thumb.png)

*Artist: Guttural Slug
*Album: Atrocities [single]
*Year: 2013
*Genre: Brutal Death Metal
*Country: Denmark (IMG:http://metalarea.org/forum/style_images/flags/Denmark.png)
*Format: mp3@CBR320kbps
*Size: 9MB

Tracklist:
01. Atrocities 03:46
******************************
Total playing time: 3:46


Preview 2

Technical info
(IMG:http://metalarea.org/images/spectrogram/2013_Oct/c088023f1c07583ba306fbfcd7fe6cbf.png)
Input File: 01. Atrocities.mp3
Channels : 2
Sample Rate : 44100
Precision : 16-bit
Duration : 00:03:46.56 = 9991076 samples = 16991.6 CDDA sectors
File Size : 9.14M
Bit Rate : 323k
Sample Encoding: MPEG audio (layer I, II or III)
Comments :
Title=Atrocities
Artist=Guttural Slug
Album=Atrocities
Tracknumber=1
Year=2013



Register


Go to the top of the page
  Insert nick Quick quote
+Quote Post
 
Start new topic
Replies (1 - 4)
post Oct 26 2013, 09:06:38
Post #2

эпистолярный садист
**************
Group: Металариец
Posts: 2,459
Releases: 1
From: Den Store Ruin
On Forums: 13 years 2 days
Thanks: 5642 time(s)
Ukraine


Новый трек GUTTURAL SLUG "Жестокости" - как всегда, брутален. 3 минуты 46 секунд массивной, размеренной давильни, из-под чугуниевого вала которой брызжет кровь и лезет какой-то нехороший блин, в котором угадывается человеческое происхождение. Убийство пока что зарегистрировано одно, и надо полагать, что в скором времени, или не очень скоро, грядёт полномасштабное побрызгивающее безумие, и вот что примечательно: бывшего вокалиста MG внезапно сменила симпатичная 21-летняя девочка по имени Саманта Мишель Смит (BROKEN ANATOMY, FIGHT THE DEMIURGE etc).



Гроулит и гургобульбирует она из глубины души и даже глубже, откуда-то из внутренних кишок - так что вот вам ещё один годный случай Brutal Death группы с женским вокалом. И не надейтесь на пощаду: в заключении о смерти будет указано раздробление полового члена ударами рёберной частью сковороды, а также черепно-мозговые травмы сверленого характера, прижизненная эвисцерация пассатижами и подозрительное отсутствие предстательной железы.


Thanks:
Go to the top of the page
  Insert nick Quick quote
+Quote Post
post Oct 26 2013, 09:52:32
Post #3

Шесть Литров
******
Group: Металариец
Posts: 522
Releases: 1
From: Кант, Кыргызстан
On Forums: 13 years 7 months
Thanks: 310 time(s)
Olympic


ЦИТАТА(waldemardr @ Oct 26 2013, 12:06:38) *
симпатичная 21-летняя девочка по имени Саманта Мишель Смит (BROKEN ANATOMY, FIGHT THE DEMIURGE etc).


ну вдуть то не вопрос, но дальше то чо с ней 21 летней делать, детёж детём, в институт отдать или пусть гуттуралит.... не просто быть девочкой в брутале)) а трек весьма, но и не жирный жир. слушабельно.
Go to the top of the page
  Insert nick Quick quote
+Quote Post
post Oct 27 2013, 14:17:13
Post #4

эпистолярный садист
**************
Group: Металариец
Posts: 2,459
Releases: 1
From: Den Store Ruin
On Forums: 13 years 2 days
Thanks: 5642 time(s)
Ukraine


QUOTE(Alc @ 26th October 2013 - 12:52:32) *
в институт отдать или пусть гуттуралит

Одно другому совершенно не мешает, и даже не препятствует регулярным вдуваниям. (IMG:style_emoticons/default/crazy.gif)


Thanks:
Go to the top of the page
  Insert nick Quick quote
+Quote Post
post May 3 2021, 12:16:57
Post #5

Правь статус, ####!111
**************
Group: Металариец
Posts: 4,844
Releases: 371
From: MoscoW
On Forums: 14 years 6 months
Thanks: 6214 time(s)
Russian Federation


Можно скачать БП в 320kbps!!!:
GUTTURAL SLUG:

(IMG:style_emoticons/default/metaler.gif)
Go to the top of the page
  Insert nick Quick quote
+Quote Post

Reply to this topicStart new topic
1 User(s) are reading this topic (1 Guests and 0 Anonymous Users)
0 Members:

 



- Lo-Fi Version Support form
Copyrights and abuse reports form
Time is now: 12th June 2021 - 21:56:19