Welcome Guest ( Log In | Register )

> Shitfucker - Suck Cocks In Hell (2013), Black/Thrash Metal (D4)
post Oct 28 2013, 06:10:17
Post #1

Правь статус, ####!111
**************
Group: Металариец
Posts: 2,291
Releases: 1011
From: Гиперборе́я
On Forums: 10 years 7 months
Thanks: 21911 time(s)
Russian Federation


(IMG:http://metalarea.org/images/audiocovers/2013_Oct/acov_tid211244_thumb.jpg)

*Artist: Shitfucker
*Album: Suck Cocks In Hell
*Year: 2013
*Genre: Black/Thrash Metal
*Country: United States (IMG:http://metalarea.org/forum/style_images/flags/United%20States.png)
*Format: mp3@CBR320kbps
*Size: 80MB

Tracklist:
01. Satantisanity 01:49
02. Smash Your Skull 05:16
03. Demonic Rock 04:14
04. Sex Dungeon 03:11
05. Acid Bath 03:43
06. Graveyard Revels 03:22
07. Go To Hell 03:29
08. Rock 'n' Roll Freaky Dude 04:01
09. I Am Of The Devil 04:53
10. Ytinastinatas 01:50
******************************
Total playing time: 35:48


(IMG:http://metalarea.org/images/youtube.png)

Technical info
(IMG:http://metalarea.org/images/spectrogram/2013_Oct/4bcc77340bdefdd5cba44e85b59f7204.png)
Input File: 02 - Smash Your Skull.mp3
Channels : 2
Sample Rate : 44100
Precision : 16-bit
Duration : 00:05:07.49 = 13560441 samples = 23062 CDDA sectors
File Size : 12.3M
Bit Rate : 321k
Sample Encoding: MPEG audio (layer I, II or III)
Comments :
Title=Smash Your Skull
Artist=Shitfucker
Album=Suck Cocks in Hell
Tracknumber=02/10
Year=2013
Genre=Black/Thrash Metal



Register


Go to the top of the page
  Insert nick Quick quote
+Quote Post
 
Start new topic
Replies (1 - 1)
post Apr 28 2021, 21:17:16
Post #2

Правь статус, ####!111
**************
Group: Металариец
Posts: 7,377
Releases: 165
From: URUGUAY
On Forums: 14 years 8 months
Thanks: 21805 time(s)
Uruguay


320
Register


Thanks:
(1) varlam4,
Go to the top of the page
  Insert nick Quick quote
+Quote Post

Reply to this topicStart new topic
2 User(s) are reading this topic (2 Guests and 0 Anonymous Users)
0 Members:

 



- Lo-Fi Version Support form
Copyrights and abuse reports form
Time is now: 22nd June 2021 - 02:08:55