Welcome Guest ( Log In | Register )

> Coprobaptized Cunthunter & Embryopathia & Purulent Jacuzzi & Sickcunt - Coprobaptized Cunthunter/Embryopathia/Purulent Jacuzzi/Sickcunt [split] (2012), Goregrind
post Oct 29 2013, 17:39:56
Post #1

Serial Uploader
Group Icon
Group: V.I.P
Posts: 39,288
Releases: 37423
From: Lithuania
On Forums: 14 years 5 months
Thanks: 469228 time(s)
Lithuania


(IMG:http://metalarea.org/images/audiocovers/2013_Oct/acov_tid211349_thumb.jpg)

*Artist: Coprobaptized Cunthunter & Embryopathia & Purulent Jacuzzi & Sickcunt
*Album: Coprobaptized Cunthunter/Embryopathia/Purulent Jacuzzi/Sickcunt [split]
*Year: 2012
*Genre: Goregrind | Goregrind | Goregrind | Goregrind
*Country: Russian Federation (IMG:http://metalarea.org/forum/style_images/flags/Russian%20Federation.png) | France (IMG:http://metalarea.org/forum/style_images/flags/France.png) | Russian Federation (IMG:http://metalarea.org/forum/style_images/flags/Russian%20Federation.png) | Russian Federation (IMG:http://metalarea.org/forum/style_images/flags/Russian%20Federation.png)
*Format: mp3@CBR320kbps
*Size: 93MB

Tracklist:
Coprobaptized Cunthunter:
01. Illegal Human 01:09
02. Year On Mercury 01:18
03. Haloperidol Exorcism 00:45
04. Abdominal Cramps (VX Cover) 01:12
05. No Flies, All Are There 00:53
06. Fat 01:35
07. Armed With An Awl 02:37
Embryopathia:
08. Lacerated Cunt Lips 02:11
09. Embalming The Dead 01:05
10. Forced Deglutition 00:38
11. Fetus Carved 01:00
12. Fluxing Flesh 00:38
13. Temporary Sexual Psychosis 01:18
14. Embryonic Execration 01:16
Purulent Jacuzzi:
15. Fatal Flower Allergy 00:34
16. Eardrums Festival 00:53
17. The Neurons Leakage 01:01
18. F-60.31 00:56
19. Laxative For The Brains 01:03
20. Parasitic Being 01:05
21. The Genetical Trouble-Shooting 00:57
22. Anorgasmia 01:09
Sickcunt:
23. Topo 00:45
24. Ca Sent Le Roussi 00:40
25. Savonner La Tete Aux Ennemis 00:57
26. Tic-Tac 00:26
27. Minet 00:43
28. Jar 01:00
29. Blind (Korn Cover) 01:13
30. Death or Glory (Six Feet Under Cover) 01:56
31. F... S... (Mistreat Cover) 01:14
******************************
Total playing time: 34:07

Preview 1

(IMG:http://metalarea.org/images/myspace.png)

Technical info
(IMG:http://metalarea.org/images/spectrogram/2013_Oct/1f92d6fa684ace6ba8adf24196ce93a0.png)
Input File: 09 Embalming the dead.mp3
Channels : 2
Sample Rate : 44100
Precision : 16-bit
Duration : 00:01:05.37 = 2882685 samples = 4902.53 CDDA sectors
File Size : 2.62M
Bit Rate : 320k
Sample Encoding: MPEG audio (layer I, II or III)
Comments :
Title=Embalming The Dead
Artist=Embryopathia
Album=Coprobaptized Cunthunter / Embryopathia / Purulent Jacuzzi / Sickcunt
Tracknumber=9
Year=2012
Genre=Grindcore



Register


Go to the top of the page
  Insert nick Quick quote
+Quote Post
 
Start new topic
Replies (1 - 4)
post Oct 30 2013, 11:49:36
Post #2

Четыре Литра
****
Group: Металариец
Posts: 305
Releases: 5
From: Рим
On Forums: 14 years 7 months
Thanks: 315 time(s)
Russian Federation


обожаю сплиты,занимающие пол страницы металареи (IMG:style_emoticons/default/5.gif) (IMG:style_emoticons/default/5.gif) (IMG:style_emoticons/default/5.gif) (IMG:style_emoticons/default/smile3.gif)


Thanks:
(1) satanath,
Go to the top of the page
  Insert nick Quick quote
+Quote Post
post Oct 31 2013, 14:18:28
Post #3

Два Литра
**
Group: Завсегдатай
Posts: 116
Releases: 0
From: Москва
On Forums: 16 years 10 months
Thanks: 21 time(s)
Russian Federation


Ну, группы-то хорошие на сплите представлены! Спасибо.


Thanks:
(1) satanath,
Go to the top of the page
  Insert nick Quick quote
+Quote Post
post Nov 8 2013, 19:12:52
Post #4

666satanath@gmail.com
Group Icon
Group: Moderation team
Posts: 6,230
Releases: 645
From: Satan-Petersburg
On Forums: 12 years 2 weeks
Thanks: 15776 time(s)
Russian Federation


Preview 4
Go to the top of the page
  Insert nick Quick quote
+Quote Post
post Jun 8 2021, 14:24:41
Post #5

Правь статус, ####!111
**************
Group: Металариец
Posts: 4,073
Releases: 2542
On Forums: 12 years 1 week
Thanks: 46559 time(s)
Russian Federation


320Kbit/s - 86MB+scans
Register


Thanks:
(1) varlam4,
Go to the top of the page
  Insert nick Quick quote
+Quote Post

Reply to this topicStart new topic
2 User(s) are reading this topic (2 Guests and 0 Anonymous Users)
0 Members:

 



- Lo-Fi Version Support form
Copyrights and abuse reports form
Time is now: 29th November 2022 - 12:53:25