Welcome Guest ( Log In | Register )

> Divine Death - Eurynomos - Prince Of Death [demo] (1994), Death Metal
post Nov 7 2013, 07:24:57
Post #1

Правь статус, ####!111
**************
Group: Металариец
Posts: 6,550
Releases: 6029
From: Lithuania
On Forums: 14 years 8 months
Thanks: 46082 time(s)
Lithuania


(IMG:http://metalarea.org/images/audiocovers/2013_Nov/acov_tid211830_thumb.jpg)

*Artist: Divine Death
*Album: Eurynomos - Prince Of Death [demo]
*Year: 1994
*Genre: Death Metal
*Country: Brazil (IMG:http://metalarea.org/forum/style_images/flags/Brazil.png)
*Format: mp3@CBR320kbps
*Size: 15MB

Tracklist:
1. Divine Death (Second Death) 04:37
2. Warriors' Terror 02:07
******************************
Total playing time: 6:44

(IMG:http://metalarea.org/images/myspace.png)

Technical info
(IMG:http://metalarea.org/images/spectrogram/2013_Nov/dd619698f99e77e3b9886907962bbe65.png)
Input File: 01 Divine Death (The Second Death).mp3
Channels : 2
Sample Rate : 44100
Precision : 16-bit
Duration : 00:04:37.32 = 12229812 samples = 20799 CDDA sectors
File Size : 11.1M
Bit Rate : 320k
Sample Encoding: MPEG audio (layer I, II or III)
Comments :
Artist=Divine Death
Album=Eurynomos - Prince of Death
Tracknumber=3
Year=1994
Genre=9



Register


Go to the top of the page
  Insert nick Quick quote
+Quote Post
 
Start new topic
Replies (1 - 5)
post Nov 7 2013, 13:56:19
Post #2

Правь статус, ####!111
**************
Group: Металариец
Posts: 48,882
Releases: 834
On Forums: 12 years 2 weeks
Thanks: 43648 time(s)
Russian Federation


Вначале прочитал как Евронимус.
Go to the top of the page
  Insert nick Quick quote
+Quote Post
post Nov 8 2013, 00:10:03
Post #3

Going home. Flying high.
**************
Group: Металариец
Posts: 13,348
Releases: 0
From: The Land of Shadows
On Forums: 14 years 10 months
Thanks: 27034 time(s)
Russian Federation


я тоже самое подумал (принц смерти - опять же)... создалось впечатление, что год спустя до далёкой бразилии дошла-таки инфа о резне в норвегии и они решили "отдать дань уважения" павшему... как сумели! (IMG:style_emoticons/default/15.gif)
Go to the top of the page
  Insert nick Quick quote
+Quote Post
post Mar 20 2019, 13:52:38
Post #4

Подвал
**************
Group: Металариец
Posts: 16,124
Releases: 9238
From: Far East (Khabarovsk)
On Forums: 12 years 4 months
Thanks: 104246 time(s)
Russian Federation


Их сторона сплита 1993 с земляками Insurrection:
Register


Go to the top of the page
  Insert nick Quick quote
+Quote Post
post Nov 1 2020, 12:06:40
Post #5

Пять Литров
*****
Group: Металариец
Posts: 477
Releases: 0
On Forums: 8 years 10 months
Thanks: 17 time(s)
Taiwan


please re-do if possible, thanks and cheers (IMG:style_emoticons/default/9.gif)
Go to the top of the page
  Insert nick Quick quote
+Quote Post
post Apr 28 2021, 13:00:56
Post #6

Правь статус, ####!111
**************
Group: Металариец
Posts: 7,377
Releases: 165
From: URUGUAY
On Forums: 14 years 8 months
Thanks: 21805 time(s)
Uruguay


320
Register


Thanks:
Go to the top of the page
  Insert nick Quick quote
+Quote Post

Reply to this topicStart new topic
2 User(s) are reading this topic (2 Guests and 0 Anonymous Users)
0 Members:

 



- Lo-Fi Version Support form
Copyrights and abuse reports form
Time is now: 22nd June 2021 - 02:08:14