Welcome Guest ( Log In | Register )

Объявления

* gmail.com упорно продолжает считать почту с нас "unsolicited" и отбивает в том числе и письма активации, поэтому просьба использовать альтернативные почтовые ящики.
------------
* gmail.com continues reject all mail from us as "unsolicited" (activation mails too) therefore please use alternate mail servers.
> Mandragora - Alrauna [demo] (1999), Gothic/Black Metal (D6)
post Nov 11 2013, 17:15:28
Post #1

Serial Uploader
Group Icon
Group: V.I.P
Posts: 42,746
Releases: 40809
From: Lithuania
On Forums: 16 years 1 week
Thanks: 523344 time(s)
Lithuania


(IMG:http://metalarea.org/images/audiocovers/2013_Nov/acov_tid212184_thumb.jpg)

*Artist: Mandragora
*Album: Alrauna [demo]
*Year: 1999
*Genre: Gothic/Black Metal
*Country: Poland (IMG:http://metalarea.org/forum/style_images/flags/Poland.png)
*Format: mp3@VBR315kbps
*Size: 41MB

Tracklist:
01. Preludium 01:06
02. Lukrecja 07:11
03. Siedem Bram 06:27
04. W Samotni Pragnień 04:30
05. Panny Wodne 01:26
******************************
Total playing time: 20:40

Technical info
(IMG:http://metalarea.org/images/spectrogram/2013_Nov/9cc273ea8f3b1a757db7e0a89c6ec549.png)
Input File: 04. W samotni pragnie?.mp3
Channels : 2
Sample Rate : 44100
Precision : 16-bit
Duration : 00:04:30.89 = 11946205 samples = 20316.7 CDDA sectors
File Size : 10.6M
Bit Rate : 314k
Sample Encoding: MPEG audio (layer I, II or III)
Comments :
Title=W samotni pragnieГ±
Artist=Mandragora
Album=Alrauna
Tracknumber=4
Year=1999
Genre=Gothic Doom metal/Female fronted



Register


Go to the top of the page
  Insert nick Quick quote
+Quote Post
 
Start new topic
Replies (1 - 3)
post Feb 1 2023, 20:13:45
Post #2

Маньяк
**********
Group: Металариец
Posts: 1,131
Releases: 0
From: Warszawa
On Forums: 9 years 5 months
Thanks: 605 time(s)
Poland


320 kbps
Register


Thanks:
Go to the top of the page
  Insert nick Quick quote
+Quote Post
post Jul 17 2023, 03:32:04
Post #3

Маньяк
**********
Group: Металариец
Posts: 1,175
Releases: 0
On Forums: 5 years 10 months
Thanks: 46 time(s)
Serbia


PLS REUPLOAD
Go to the top of the page
  Insert nick Quick quote
+Quote Post
post Jul 17 2023, 09:45:45
Post #4

Forever Underground
**************
Group: Металариец
Posts: 12,215
Releases: 0
On Forums: 9 years 2 months
Thanks: 19854 time(s)
Unknown


@320kbps
Register


Thanks:
Go to the top of the page
  Insert nick Quick quote
+Quote Post

Reply to this topicStart new topic
2 User(s) are reading this topic (2 Guests and 0 Anonymous Users)
0 Members:

 



- Lo-Fi Version Support form
Copyrights and abuse reports form
Time is now: 14th June 2024 - 07:46:07